  0
SECTION
  2
HEADER
  9
$ACADVER
  1
AC1015
  9
$ACADMAINTVER
 70
     6
  9
$DWGCODEPAGE
  3
ANSI_1252
  9
$INSBASE
 10
0.0
 20
0.0
 30
0.0
  9
$EXTMIN
 10
19.49999999999996
 20
19.4999999999999
 30
0.0
  9
$EXTMAX
 10
574.5
 20
420.5
 30
0.0
  9
$LIMMIN
 10
0.0
 20
0.0
  9
$LIMMAX
 10
12.0
 20
9.0
  9
$ORTHOMODE
 70
     0
  9
$REGENMODE
 70
     1
  9
$FILLMODE
 70
     1
  9
$QTEXTMODE
 70
     0
  9
$MIRRTEXT
 70
     1
  9
$LTSCALE
 40
1.0
  9
$ATTMODE
 70
     1
  9
$TEXTSIZE
 40
0.2
  9
$TRACEWID
 40
0.05
  9
$TEXTSTYLE
  7
Standard
  9
$CLAYER
  8
0
  9
$CELTYPE
  6
ByLayer
  9
$CECOLOR
 62
   256
  9
$CELTSCALE
 40
1.0
  9
$DISPSILH
 70
     0
  9
$DIMSCALE
 40
1.0
  9
$DIMASZ
 40
0.18
  9
$DIMEXO
 40
0.0625
  9
$DIMDLI
 40
0.38
  9
$DIMRND
 40
0.0
  9
$DIMDLE
 40
0.0
  9
$DIMEXE
 40
0.18
  9
$DIMTP
 40
0.0
  9
$DIMTM
 40
0.0
  9
$DIMTXT
 40
0.18
  9
$DIMCEN
 40
0.09
  9
$DIMTSZ
 40
0.0
  9
$DIMTOL
 70
     0
  9
$DIMLIM
 70
     0
  9
$DIMTIH
 70
     1
  9
$DIMTOH
 70
     1
  9
$DIMSE1
 70
     0
  9
$DIMSE2
 70
     0
  9
$DIMTAD
 70
     0
  9
$DIMZIN
 70
     0
  9
$DIMBLK
  1

  9
$DIMASO
 70
     1
  9
$DIMSHO
 70
     1
  9
$DIMPOST
  1

  9
$DIMAPOST
  1

  9
$DIMALT
 70
     0
  9
$DIMALTD
 70
     2
  9
$DIMALTF
 40
25.4
  9
$DIMLFAC
 40
1.0
  9
$DIMTOFL
 70
     0
  9
$DIMTVP
 40
0.0
  9
$DIMTIX
 70
     0
  9
$DIMSOXD
 70
     0
  9
$DIMSAH
 70
     0
  9
$DIMBLK1
  1

  9
$DIMBLK2
  1

  9
$DIMSTYLE
  2
Standard
  9
$DIMCLRD
 70
     0
  9
$DIMCLRE
 70
     0
  9
$DIMCLRT
 70
     0
  9
$DIMTFAC
 40
1.0
  9
$DIMGAP
 40
0.09
  9
$DIMJUST
 70
     0
  9
$DIMSD1
 70
     0
  9
$DIMSD2
 70
     0
  9
$DIMTOLJ
 70
     1
  9
$DIMTZIN
 70
     0
  9
$DIMALTZ
 70
     0
  9
$DIMALTTZ
 70
     0
  9
$DIMUPT
 70
     0
  9
$DIMDEC
 70
     4
  9
$DIMTDEC
 70
     4
  9
$DIMALTU
 70
     2
  9
$DIMALTTD
 70
     2
  9
$DIMTXSTY
  7
Standard
  9
$DIMAUNIT
 70
     0
  9
$DIMADEC
 70
     0
  9
$DIMALTRND
 40
0.0
  9
$DIMAZIN
 70
     0
  9
$DIMDSEP
 70
    46
  9
$DIMATFIT
 70
     3
  9
$DIMFRAC
 70
     0
  9
$DIMLDRBLK
  1

  9
$DIMLUNIT
 70
     2
  9
$DIMLWD
 70
    -2
  9
$DIMLWE
 70
    -2
  9
$DIMTMOVE
 70
     0
  9
$LUNITS
 70
     2
  9
$LUPREC
 70
     4
  9
$SKETCHINC
 40
0.1
  9
$FILLETRAD
 40
0.5
  9
$AUNITS
 70
     0
  9
$AUPREC
 70
     0
  9
$MENU
  1
.
  9
$ELEVATION
 40
0.0
  9
$PELEVATION
 40
0.0
  9
$THICKNESS
 40
0.0
  9
$LIMCHECK
 70
     0
  9
$CHAMFERA
 40
0.5
  9
$CHAMFERB
 40
0.5
  9
$CHAMFERC
 40
1.0
  9
$CHAMFERD
 40
0.0
  9
$SKPOLY
 70
     0
  9
$TDCREATE
 40
2454986.466511759
  9
$TDUCREATE
 40
2454986.383178426
  9
$TDUPDATE
 40
2454986.466511771
  9
$TDUUPDATE
 40
2454986.383178438
  9
$TDINDWG
 40
0.0000000116
  9
$TDUSRTIMER
 40
0.0000000116
  9
$USRTIMER
 70
     1
  9
$ANGBASE
 50
0.0
  9
$ANGDIR
 70
     0
  9
$PDMODE
 70
     0
  9
$PDSIZE
 40
0.0
  9
$PLINEWID
 40
0.0
  9
$SPLFRAME
 70
     0
  9
$SPLINETYPE
 70
     6
  9
$SPLINESEGS
 70
     8
  9
$HANDSEED
  5
3BA
  9
$SURFTAB1
 70
     6
  9
$SURFTAB2
 70
     6
  9
$SURFTYPE
 70
     6
  9
$SURFU
 70
     6
  9
$SURFV
 70
     6
  9
$UCSBASE
  2

  9
$UCSNAME
  2

  9
$UCSORG
 10
0.0
 20
0.0
 30
0.0
  9
$UCSXDIR
 10
1.0
 20
0.0
 30
0.0
  9
$UCSYDIR
 10
0.0
 20
1.0
 30
0.0
  9
$UCSORTHOREF
  2

  9
$UCSORTHOVIEW
 70
     0
  9
$UCSORGTOP
 10
0.0
 20
0.0
 30
0.0
  9
$UCSORGBOTTOM
 10
0.0
 20
0.0
 30
0.0
  9
$UCSORGLEFT
 10
0.0
 20
0.0
 30
0.0
  9
$UCSORGRIGHT
 10
0.0
 20
0.0
 30
0.0
  9
$UCSORGFRONT
 10
0.0
 20
0.0
 30
0.0
  9
$UCSORGBACK
 10
0.0
 20
0.0
 30
0.0
  9
$PUCSBASE
  2

  9
$PUCSNAME
  2

  9
$PUCSORG
 10
0.0
 20
0.0
 30
0.0
  9
$PUCSXDIR
 10
1.0
 20
0.0
 30
0.0
  9
$PUCSYDIR
 10
0.0
 20
1.0
 30
0.0
  9
$PUCSORTHOREF
  2

  9
$PUCSORTHOVIEW
 70
     0
  9
$PUCSORGTOP
 10
0.0
 20
0.0
 30
0.0
  9
$PUCSORGBOTTOM
 10
0.0
 20
0.0
 30
0.0
  9
$PUCSORGLEFT
 10
0.0
 20
0.0
 30
0.0
  9
$PUCSORGRIGHT
 10
0.0
 20
0.0
 30
0.0
  9
$PUCSORGFRONT
 10
0.0
 20
0.0
 30
0.0
  9
$PUCSORGBACK
 10
0.0
 20
0.0
 30
0.0
  9
$USERI1
 70
     0
  9
$USERI2
 70
     0
  9
$USERI3
 70
     0
  9
$USERI4
 70
     0
  9
$USERI5
 70
     0
  9
$USERR1
 40
16.0
  9
$USERR2
 40
0.0
  9
$USERR3
 40
0.0
  9
$USERR4
 40
0.0
  9
$USERR5
 40
0.0
  9
$WORLDVIEW
 70
     1
  9
$SHADEDGE
 70
     3
  9
$SHADEDIF
 70
    70
  9
$TILEMODE
 70
     1
  9
$MAXACTVP
 70
    64
  9
$PINSBASE
 10
0.0
 20
0.0
 30
0.0
  9
$PLIMCHECK
 70
     0
  9
$PEXTMIN
 10
1.00000000000000E+20
 20
1.00000000000000E+20
 30
1.00000000000000E+20
  9
$PEXTMAX
 10
-1.00000000000000E+20
 20
-1.00000000000000E+20
 30
-1.00000000000000E+20
  9
$PLIMMIN
 10
0.0
 20
0.0
  9
$PLIMMAX
 10
12.0
 20
9.0
  9
$UNITMODE
 70
     0
  9
$VISRETAIN
 70
     1
  9
$PLINEGEN
 70
     0
  9
$PSLTSCALE
 70
     1
  9
$TREEDEPTH
 70
  3020
  9
$CMLSTYLE
  2
Standard
  9
$CMLJUST
 70
     0
  9
$CMLSCALE
 40
1.0
  9
$PROXYGRAPHICS
 70
     1
  9
$MEASUREMENT
 70
     1
  9
$CELWEIGHT
370
    -1
  9
$ENDCAPS
280
     0
  9
$JOINSTYLE
280
     0
  9
$LWDISPLAY
290
     0
  9
$INSUNITS
 70
     1
  9
$HYPERLINKBASE
  1

  9
$STYLESHEET
  1

  9
$XEDIT
290
     1
  9
$CEPSNTYPE
380
     0
  9
$PSTYLEMODE
290
     1
  9
$FINGERPRINTGUID
  2
{4C6A8591-9A39-46BE-9F61-F97BCF2C4B11}
  9
$VERSIONGUID
  2
{FAEB1C32-E019-11D5-929B-00C0DF256EC4}
  9
$EXTNAMES
290
     1
  9
$PSVPSCALE
 40
0.0
  9
$OLESTARTUP
290
     0
  0
ENDSEC
  0
SECTION
  2
CLASSES
  0
CLASS
  1
ACDBDICTIONARYWDFLT
  2
AcDbDictionaryWithDefault
  3
ObjectDBX Classes
 90
        0
280
     0
281
     0
  0
CLASS
  1
VISUALSTYLE
  2
AcDbVisualStyle
  3
ObjectDBX Classes
 90
     4095
280
     0
281
     0
  0
CLASS
  1

  2
exOdDbPolyline
  3

 90
        0
280
     0
281
     1
  0
CLASS
  1

  2
exOdDbSpline
  3

 90
        0
280
     0
281
     1
  0
CLASS
  1
ACDBPLACEHOLDER
  2
AcDbPlaceHolder
  3
ObjectDBX Classes
 90
        0
280
     0
281
     0
  0
CLASS
  1
LAYOUT
  2
AcDbLayout
  3
ObjectDBX Classes
 90
        0
280
     0
281
     0
  0
ENDSEC
  0
SECTION
  2
TABLES
  0
TABLE
  2
VPORT
  5
8
330
0
100
AcDbSymbolTable
 70
     1
  0
VPORT
  5
29
330
8
100
AcDbSymbolTableRecord
100
AcDbViewportTableRecord
  2
*Active
 70
     0
 10
0.0
 20
0.0
 11
1.0
 21
1.0
 12
297.0
 22
219.9999999999999
 13
0.0
 23
0.0
 14
0.5
 24
0.5
 15
0.5
 25
0.5
 16
0.0
 26
0.0
 36
1.0
 17
0.0
 27
0.0
 37
0.0
 40
441.1000000000001
 41
1.60267857142857
 42
50.0
 43
0.0
 44
0.0
 50
0.0
 51
0.0
 71
     0
 72
   100
 73
     1
 74
     3
 75
     0
 76
     0
 77
     0
 78
     0
281
     0
 65
     1
110
0.0
120
0.0
130
0.0
111
1.0
121
0.0
131
0.0
112
0.0
122
1.0
132
0.0
 79
     0
146
0.0
  0
ENDTAB
  0
TABLE
  2
LTYPE
  5
5
330
0
100
AcDbSymbolTable
 70
     9
  0
LTYPE
  5
14
330
5
100
AcDbSymbolTableRecord
100
AcDbLinetypeTableRecord
  2
ByBlock
 70
     0
  3

 72
    65
 73
     0
 40
0.0
  0
LTYPE
  5
15
330
5
100
AcDbSymbolTableRecord
100
AcDbLinetypeTableRecord
  2
ByLayer
 70
     0
  3

 72
    65
 73
     0
 40
0.0
  0
LTYPE
  5
16
330
5
100
AcDbSymbolTableRecord
100
AcDbLinetypeTableRecord
  2
Continuous
 70
     0
  3
Solid line
 72
    65
 73
     0
 40
0.0
  0
LTYPE
  5
3B
330
5
100
AcDbSymbolTableRecord
100
AcDbLinetypeTableRecord
  2
DASHED
 70
     0
  3
Dashed
 72
    65
 73
     2
 40
15.0
 49
7.0
 74
     0
 49
-8.0
 74
     0
  0
LTYPE
  5
3C
330
5
100
AcDbSymbolTableRecord
100
AcDbLinetypeTableRecord
  2
DOTTED
 70
     0
  3
Dotted
 72
    65
 73
     2
 40
1.0
 49
0.0
 74
     0
 49
-1.0
 74
     0
  0
LTYPE
  5
3D
330
5
100
AcDbSymbolTableRecord
100
AcDbLinetypeTableRecord
  2
DOT_CENTER
 70
     0
  3
Dot_Center
 72
    65
 73
     4
 40
14.0
 49
12.0
 74
     0
 49
-1.0
 74
     0
 49
0.0
 74
     0
 49
-1.0
 74
     0
  0
LTYPE
  5
3E
330
5
100
AcDbSymbolTableRecord
100
AcDbLinetypeTableRecord
  2
LONG_DASHED
 70
     0
  3
Long_Dashed
 72
    65
 73
     2
 40
15.0
 49
10.0
 74
     0
 49
-5.0
 74
     0
  0
LTYPE
  5
3F
330
5
100
AcDbSymbolTableRecord
100
AcDbLinetypeTableRecord
  2
DASH_CENTER
 70
     0
  3
Dash_Center
 72
    65
 73
     4
 40
14.0
 49
11.0
 74
     0
 49
-1.0
 74
     0
 49
1.0
 74
     0
 49
-1.0
 74
     0
  0
LTYPE
  5
40
330
5
100
AcDbSymbolTableRecord
100
AcDbLinetypeTableRecord
  2
PHANTOM
 70
     0
  3
Phantom
 72
    65
 73
     6
 40
13.0
 49
10.0
 74
     0
 49
-1.0
 74
     0
 49
0.0
 74
     0
 49
-1.0
 74
     0
 49
0.0
 74
     0
 49
-1.0
 74
     0
  0
LTYPE
  5
41
330
5
100
AcDbSymbolTableRecord
100
AcDbLinetypeTableRecord
  2
CENTER_DASH_DASH
 70
     0
  3
Center_Dash_Dash
 72
    65
 73
     6
 40
14.0
 49
9.0
 74
     0
 49
-1.0
 74
     0
 49
1.0
 74
     0
 49
-1.0
 74
     0
 49
1.0
 74
     0
 49
-1.0
 74
     0
  0
LTYPE
  5
42
330
5
100
AcDbSymbolTableRecord
100
AcDbLinetypeTableRecord
  2
CHAIN
 70
     0
  3
CHAIN
 72
    65
 73
     4
 40
4.0
 49
1.0
 74
     0
 49
-1.0
 74
     0
 49
1.0
 74
     0
 49
-1.0
 74
     0
  0
ENDTAB
  0
TABLE
  2
LAYER
  5
2
330
0
100
AcDbSymbolTable
 70
     9
  0
LAYER
  5
10
330
2
100
AcDbSymbolTableRecord
100
AcDbLayerTableRecord
  2
0
 70
     0
 62
     7
  6
Continuous
370
    -3
390
F
  0
LAYER
  5
43
330
2
100
AcDbSymbolTableRecord
100
AcDbLayerTableRecord
  2
Bemaßungen_TC_020513_DIN_
 70
     0
 62
     7
  6
Continuous
370
    -3
390
F
  0
LAYER
  5
44
330
2
100
AcDbSymbolTableRecord
100
AcDbLayerTableRecord
  2
Mittellinie_TC_020513_DIN_
 70
     0
 62
     7
  6
Continuous
370
    -3
390
F
  0
LAYER
  5
45
330
2
100
AcDbSymbolTableRecord
100
AcDbLayerTableRecord
  2
Mittelpunktmarkierung_TC_020513_DIN_
 70
     0
 62
     7
  6
Continuous
370
    -3
390
F
  0
LAYER
  5
46
330
2
100
AcDbSymbolTableRecord
100
AcDbLayerTableRecord
  2
Schraffur
 70
     0
 62
     7
  6
Continuous
370
    -3
390
F
  0
LAYER
  5
47
330
2
100
AcDbSymbolTableRecord
100
AcDbLayerTableRecord
  2
Sichtbare_Kanten_TC_020513_DIN_
 70
     0
 62
     7
  6
Continuous
370
    -3
390
F
  0
LAYER
  5
48
330
2
100
AcDbSymbolTableRecord
100
AcDbLayerTableRecord
  2
Skizziergeometrie_ISO_
 70
     0
 62
     7
  6
Continuous
370
    -3
390
F
  0
LAYER
  5
49
330
2
100
AcDbSymbolTableRecord
100
AcDbLayerTableRecord
  2
Symbole_ISO_
 70
     0
 62
     7
  6
Continuous
370
    -3
390
F
  0
LAYER
  5
4A
330
2
100
AcDbSymbolTableRecord
100
AcDbLayerTableRecord
  2
Symbole_TC_020513_DIN_
 70
     0
 62
     7
  6
Continuous
370
    -3
390
F
  0
ENDTAB
  0
TABLE
  2
STYLE
  5
3
330
0
100
AcDbSymbolTable
 70
     6
  0
STYLE
  5
11
330
3
100
AcDbSymbolTableRecord
100
AcDbTextStyleTableRecord
  2
Standard
 70
     0
 40
0.0
 41
1.0
 50
0.0
 71
     0
 42
0.2
  3
txt
  4

  0
STYLE
  5
E9
330
3
100
AcDbSymbolTableRecord
100
AcDbTextStyleTableRecord
  2
CONVERTER_11
 70
     0
 40
0.0
 41
0.59999996423721
 50
0.0
 71
     0
 42
0.2
  3
txt.shx
  4

  0
STYLE
  5
EB
330
3
100
AcDbSymbolTableRecord
100
AcDbTextStyleTableRecord
  2
CONVERTER_12
 70
     0
 40
0.0
 41
0.67499998211861
 50
0.0
 71
     0
 42
0.2
  3
txt.shx
  4

  0
STYLE
  5
34A
330
3
100
AcDbSymbolTableRecord
100
AcDbTextStyleTableRecord
  2
CONVERTER_13
 70
     0
 40
0.0
 41
0.74999995529652
 50
0.0
 71
     0
 42
0.2
  3
ARIAL.TTF
  4

  0
STYLE
  5
34C
330
3
100
AcDbSymbolTableRecord
100
AcDbTextStyleTableRecord
  2
CONVERTER_14
 70
     0
 40
0.0
 41
0.56249998509884
 50
0.0
 71
     0
 42
0.2
  3
ARIAL.TTF
  4

  0
STYLE
  5
34E
330
3
100
AcDbSymbolTableRecord
100
AcDbTextStyleTableRecord
  2
CONVERTER_15
 70
     0
 40
0.0
 41
0.625
 50
0.0
 71
     0
 42
0.2
  3
ARIAL.TTF
  4

  0
ENDTAB
  0
TABLE
  2
VIEW
  5
6
330
0
100
AcDbSymbolTable
 70
     0
  0
ENDTAB
  0
TABLE
  2
UCS
  5
7
330
0
100
AcDbSymbolTable
 70
     0
  0
ENDTAB
  0
TABLE
  2
APPID
  5
9
330
0
100
AcDbSymbolTable
 70
     1
  0
APPID
  5
12
330
9
100
AcDbSymbolTableRecord
100
AcDbRegAppTableRecord
  2
ACAD
 70
     0
  0
ENDTAB
  0
TABLE
  2
DIMSTYLE
  5
A
330
0
100
AcDbSymbolTable
 70
    11
100
AcDbDimStyleTable
  0
DIMSTYLE
105
27
330
A
100
AcDbSymbolTableRecord
100
AcDbDimStyleTableRecord
  2
Standard
 70
     0
340
11
  0
DIMSTYLE
105
350
330
A
100
AcDbSymbolTableRecord
100
AcDbDimStyleTableRecord
  2
ME10_DIM_10
 70
     0
140
6.99999988079071
147
1.74999997019768
178
     7
340
11
  0
DIMSTYLE
105
35B
102
{ACAD_REACTORS
330
35C
102
}
330
A
100
AcDbSymbolTableRecord
100
AcDbDimStyleTableRecord
  2
ME10_DIM_11
 70
     0
 41
5.0
 42
2.0
 44
4.0
 73
     0
 74
     0
 77
     1
 78
    12
140
7.0
147
0.8
172
     1
173
     1
176
     7
177
     7
178
     7
271
     2
340
34E
  0
DIMSTYLE
105
366
102
{ACAD_REACTORS
330
367
102
}
330
A
100
AcDbSymbolTableRecord
100
AcDbDimStyleTableRecord
  2
ME10_DIM_12
 70
     0
 41
5.0
 42
2.0
 44
4.0
 73
     0
 74
     0
 77
     1
 78
    12
140
7.0
147
0.8
172
     1
173
     1
176
     7
177
     7
178
     7
271
     2
340
34E
  0
DIMSTYLE
105
371
102
{ACAD_REACTORS
330
372
102
}
330
A
100
AcDbSymbolTableRecord
100
AcDbDimStyleTableRecord
  2
ME10_DIM_13
 70
     0
 41
5.0
 42
2.0
 44
4.0
 73
     0
 74
     0
 77
     1
 78
    12
140
7.0
147
0.8
172
     1
173
     1
176
     7
177
     7
178
     7
271
     2
340
34E
  0
DIMSTYLE
105
37C
102
{ACAD_REACTORS
330
37D
102
}
330
A
100
AcDbSymbolTableRecord
100
AcDbDimStyleTableRecord
  2
ME10_DIM_14
 70
     0
 41
5.0
 42
2.0
 44
4.0
 73
     0
 74
     0
 77
     1
 78
    12
140
7.0
147
0.8
172
     1
173
     1
176
     7
177
     7
178
     7
271
     2
340
34E
  0
DIMSTYLE
105
387
102
{ACAD_REACTORS
330
388
102
}
330
A
100
AcDbSymbolTableRecord
100
AcDbDimStyleTableRecord
  2
ME10_DIM_15
 70
     0
 41
5.0
 42
2.0
 44
4.0
 73
     0
 74
     0
 77
     1
 78
    12
140
7.0
147
0.8
172
     1
173
     1
176
     7
177
     7
178
     7
271
     2
340
34E
  0
DIMSTYLE
105
394
102
{ACAD_REACTORS
330
395
102
}
330
A
100
AcDbSymbolTableRecord
100
AcDbDimStyleTableRecord
  2
ME10_DIM_16
 70
     0
 41
5.0
 42
2.0
 44
4.0
 73
     0
 74
     0
 77
     1
 78
    12
140
7.0
147
0.8
172
     1
173
     1
176
     7
177
     7
178
     7
271
     2
340
34E
  0
DIMSTYLE
105
39F
102
{ACAD_REACTORS
330
3A0
102
}
330
A
100
AcDbSymbolTableRecord
100
AcDbDimStyleTableRecord
  2
ME10_DIM_17
 70
     0
 41
5.0
 42
2.0
 44
4.0
 73
     0
 74
     0
 77
     1
 78
    12
140
7.0
147
0.8
172
     1
173
     1
176
     7
177
     7
178
     7
271
     2
340
34E
  0
DIMSTYLE
105
3AA
102
{ACAD_REACTORS
330
3AB
102
}
330
A
100
AcDbSymbolTableRecord
100
AcDbDimStyleTableRecord
  2
ME10_DIM_18
 70
     0
 41
5.0
 42
2.0
 44
4.0
 73
     0
 74
     0
 77
     1
 78
    12
140
7.0
147
0.8
172
     1
173
     1
176
     7
177
     7
178
     7
271
     2
340
34E
  0
DIMSTYLE
105
3B5
102
{ACAD_REACTORS
330
3B6
102
}
330
A
100
AcDbSymbolTableRecord
100
AcDbDimStyleTableRecord
  2
ME10_DIM_19
 70
     0
 41
5.0
 42
2.0
 44
4.0
 73
     0
 74
     0
 77
     1
 78
    12
140
7.0
147
0.8
172
     1
173
     1
176
     7
177
     7
178
     7
271
     2
340
34E
  0
ENDTAB
  0
TABLE
  2
BLOCK_RECORD
  5
1
330
0
100
AcDbSymbolTable
 70
    12
  0
BLOCK_RECORD
  5
1F
330
1
100
AcDbSymbolTableRecord
100
AcDbBlockTableRecord
  2
*Model_Space
340
22
  0
BLOCK_RECORD
  5
1B
330
1
100
AcDbSymbolTableRecord
100
AcDbBlockTableRecord
  2
*Paper_Space
340
1E
  0
BLOCK_RECORD
  5
23
330
1
100
AcDbSymbolTableRecord
100
AcDbBlockTableRecord
  2
*Paper_Space0
340
26
  0
BLOCK_RECORD
  5
4B
330
1
100
AcDbSymbolTableRecord
100
AcDbBlockTableRecord
  2
Schriftfelder_Ilme
340
0
102
{BLKREFS
331
51
102
}
  0
BLOCK_RECORD
  5
4E
330
1
100
AcDbSymbolTableRecord
100
AcDbBlockTableRecord
  2
Ränder_Ilme_Rahmen_A4_quer
340
0
102
{BLKREFS
331
52
102
}
  0
BLOCK_RECORD
  5
352
330
1
100
AcDbSymbolTableRecord
100
AcDbBlockTableRecord
  2
*D3
340
0
  0
BLOCK_RECORD
  5
35D
330
1
100
AcDbSymbolTableRecord
100
AcDbBlockTableRecord
  2
*D4
340
0
  0
BLOCK_RECORD
  5
368
330
1
100
AcDbSymbolTableRecord
100
AcDbBlockTableRecord
  2
*D5
340
0
  0
BLOCK_RECORD
  5
373
330
1
100
AcDbSymbolTableRecord
100
AcDbBlockTableRecord
  2
*D6
340
0
  0
BLOCK_RECORD
  5
37E
330
1
100
AcDbSymbolTableRecord
100
AcDbBlockTableRecord
  2
*D7
340
0
  0
BLOCK_RECORD
  5
389
330
1
100
AcDbSymbolTableRecord
100
AcDbBlockTableRecord
  2
*D8
340
0
  0
BLOCK_RECORD
  5
396
330
1
100
AcDbSymbolTableRecord
100
AcDbBlockTableRecord
  2
*D9
340
0
  0
BLOCK_RECORD
  5
3A1
330
1
100
AcDbSymbolTableRecord
100
AcDbBlockTableRecord
  2
*D10
340
0
  0
BLOCK_RECORD
  5
3AC
330
1
100
AcDbSymbolTableRecord
100
AcDbBlockTableRecord
  2
*D11
340
0
  0
ENDTAB
  0
ENDSEC
  0
SECTION
  2
BLOCKS
  0
BLOCK
  5
20
330
1F
100
AcDbEntity
  8
0
100
AcDbBlockBegin
  2
*Model_Space
 70
     0
 10
0.0
 20
0.0
 30
0.0
  3
*Model_Space
  1

  0
ENDBLK
  5
21
330
1F
100
AcDbEntity
  8
0
100
AcDbBlockEnd
  0
BLOCK
  5
1C
330
1B
100
AcDbEntity
 67
     1
  8
0
100
AcDbBlockBegin
  2
*Paper_Space
 70
     0
 10
0.0
 20
0.0
 30
0.0
  3
*Paper_Space
  1

  0
ENDBLK
  5
1D
330
1B
100
AcDbEntity
 67
     1
  8
0
100
AcDbBlockEnd
  0
BLOCK
  5
24
330
23
100
AcDbEntity
  8
0
100
AcDbBlockBegin
  2
*Paper_Space0
 70
     0
 10
0.0
 20
0.0
 30
0.0
  3
*Paper_Space0
  1

  0
ENDBLK
  5
25
330
23
100
AcDbEntity
  8
0
100
AcDbBlockEnd
  0
BLOCK
  5
4C
330
4B
100
AcDbEntity
  8
0
100
AcDbBlockBegin
  2
Schriftfelder_Ilme
 70
     0
 10
0.0
 20
0.0
 30
0.0
  3
Schriftfelder_Ilme
  1

  0
LINE
  5
53
102
{ACAD_REACTORS
330
EF
330
EF
102
}
330
4B
100
AcDbEntity
  8
0
  6
Continuous
 62
     7
100
AcDbLine
 10
192.857882489926
 20
15.5586421730067
 30
0.0
 11
191.48842975933
 21
14.7685732899702
 31
0.0
  0
LINE
  5
54
102
{ACAD_REACTORS
330
EF
330
EF
102
}
330
4B
100
AcDbEntity
  8
0
  6
Continuous
 62
     7
100
AcDbLine
 10
190.988522274833
 20
15.0573018186531
 30
0.0
 11
190.988522274833
 21
19.9439783665993
 31
0.0
  0
LINE
  5
55
102
{ACAD_REACTORS
330
EF
330
EF
102
}
330
4B
100
AcDbEntity
  8
0
  6
Continuous
 62
     7
100
AcDbLine
 10
191.48842975933
 20
20.2327068952822
 30
0.0
 11
192.857882489926
 21
19.4426380122457
 31
0.0
  0
LINE
  5
56
102
{ACAD_REACTORS
330
EF
330
EF
102
}
330
4B
100
AcDbEntity
  8
0
  6
Continuous
 62
     7
100
AcDbLine
 10
192.5247341876
 20
18.8651809548799
 30
0.0
 11
191.6551889415
 21
19.3668416737836
 31
0.0
  0
LINE
  5
57
102
{ACAD_REACTORS
330
EF
330
EF
102
}
330
4B
100
AcDbEntity
  8
0
  6
Continuous
 62
     7
100
AcDbLine
 10
191.6551889415
 20
19.3668416737836
 30
0.0
 11
191.6551889415
 21
17.8339734259596
 31
0.0
  0
LINE
  5
58
102
{ACAD_REACTORS
330
EF
330
EF
102
}
330
4B
100
AcDbEntity
  8
0
  6
Continuous
 62
     7
100
AcDbLine
 10
191.6551889415
 20
17.8339734259596
 30
0.0
 11
192.691308338763
 21
17.8339734259596
 31
0.0
  0
LINE
  5
59
102
{ACAD_REACTORS
330
EF
330
EF
102
}
330
4B
100
AcDbEntity
  8
0
  6
Continuous
 62
     7
100
AcDbLine
 10
192.691308338763
 20
17.1673067592928
 30
0.0
 11
191.6551889415
 21
17.1673067592928
 31
0.0
  0
LINE
  5
5A
102
{ACAD_REACTORS
330
EF
330
EF
102
}
330
4B
100
AcDbEntity
  8
0
  6
Continuous
 62
     7
100
AcDbLine
 10
191.6551889415
 20
17.1673067592928
 30
0.0
 11
191.6551889415
 21
15.6344385114688
 31
0.0
  0
LINE
  5
5B
102
{ACAD_REACTORS
330
EF
330
EF
102
}
330
4B
100
AcDbEntity
  8
0
  6
Continuous
 62
     7
100
AcDbLine
 10
191.6551889415
 20
15.6344385114688
 30
0.0
 11
192.5247341876
 21
16.1360992303725
 31
0.0
  0
LINE
  5
5C
102
{ACAD_REACTORS
330
F0
330
F0
102
}
330
4B
100
AcDbEntity
  8
0
  6
Continuous
 62
     7
100
AcDbLine
 10
186.988528696562
 20
20.7526980593071
 30
0.0
 11
186.988528696563
 21
15.8473707016896
 31
0.0
  0
LINE
  5
5D
102
{ACAD_REACTORS
330
F0
330
F0
102
}
330
4B
100
AcDbEntity
  8
0
  6
Continuous
 62
     7
100
AcDbLine
 10
187.655195363229
 20
15.8473707016896
 30
0.0
 11
187.655195363229
 21
19.2535360148728
 31
0.0
  0
LINE
  5
5E
102
{ACAD_REACTORS
330
F0
330
F0
102
}
330
4B
100
AcDbEntity
  8
0
  6
Continuous
 62
     7
100
AcDbLine
 10
187.655195363229
 20
19.2535360148728
 30
0.0
 11
188.510852383006
 21
17.7714945827671
 31
0.0
  0
LINE
  5
5F
102
{ACAD_REACTORS
330
F0
330
F0
102
}
330
4B
100
AcDbEntity
  8
0
  6
Continuous
 62
     7
100
AcDbLine
 10
188.7995275176
 20
17.7714945827671
 30
0.0
 11
189.655184537377
 21
19.2535360148728
 31
0.0
  0
LINE
  5
60
102
{ACAD_REACTORS
330
F0
330
F0
102
}
330
4B
100
AcDbEntity
  8
0
  6
Continuous
 62
     7
100
AcDbLine
 10
189.655184537377
 20
19.2535360148728
 30
0.0
 11
189.655184537377
 21
14.2880685085818
 31
0.0
  0
LINE
  5
61
102
{ACAD_REACTORS
330
F0
330
F0
102
}
330
4B
100
AcDbEntity
  8
0
  6
Continuous
 62
     7
100
AcDbLine
 10
190.321851204044
 20
14.2880685085818
 30
0.0
 11
190.321851204044
 21
20.752698059307
 31
0.0
  0
LINE
  5
62
102
{ACAD_REACTORS
330
F0
330
F0
102
}
330
4B
100
AcDbEntity
  8
0
  6
Continuous
 62
     7
100
AcDbLine
 10
189.82741752042
 20
20.8851811655447
 30
0.0
 11
188.655189950303
 21
18.8548234560689
 31
0.0
  0
LINE
  5
63
102
{ACAD_REACTORS
330
F0
330
F0
102
}
330
4B
100
AcDbEntity
  8
0
  6
Continuous
 62
     7
100
AcDbLine
 10
188.655189950303
 20
18.8548234560689
 30
0.0
 11
187.482962380186
 21
20.8851811655447
 31
0.0
  0
LINE
  5
64
102
{ACAD_REACTORS
330
F1
330
F1
102
}
330
4B
100
AcDbEntity
  8
0
  6
Continuous
 62
     7
100
AcDbLine
 10
186.321857625773
 20
15.270660658657
 30
0.0
 11
186.321857625773
 21
19.9439783665993
 31
0.0
  0
LINE
  5
65
102
{ACAD_REACTORS
330
F1
330
F1
102
}
330
4B
100
AcDbEntity
  8
0
  6
Continuous
 62
     7
100
AcDbLine
 10
185.655190959106
 20
19.9439783665993
 30
0.0
 11
185.655190959106
 21
15.2706619304882
 31
0.0
  0
LINE
  5
66
102
{ACAD_REACTORS
330
F1
330
F1
102
}
330
4B
100
AcDbEntity
  8
0
  6
Continuous
 62
     7
100
AcDbLine
 10
185.988710425088
 20
14.6932029657285
 30
0.0
 11
188.15634562976
 21
13.4426441938023
 31
0.0
  0
LINE
  5
67
102
{ACAD_REACTORS
330
F1
330
F1
102
}
330
4B
100
AcDbEntity
  8
0
  6
Continuous
 62
     7
100
AcDbLine
 10
188.489493932086
 20
14.0201012511681
 30
0.0
 11
186.321857625773
 21
15.270660658657
 31
0.0
  0
LINE
  5
68
102
{ACAD_REACTORS
330
F2
330
F2
102
}
330
4B
100
AcDbEntity
  8
0
  6
Continuous
 62
     7
100
AcDbLine
 10
184.988523283636
 20
19.1539094835628
 30
0.0
 11
184.988523283636
 21
15.8473707016896
 31
0.0
  0
LINE
  5
69
102
{ACAD_REACTORS
330
F2
330
F2
102
}
330
4B
100
AcDbEntity
  8
0
  6
Continuous
 62
     7
100
AcDbLine
 10
184.32185661697
 20
15.8473707016896
 30
0.0
 11
184.32185661697
 21
19.1539094835628
 31
0.0
  0
ARC
  5
91
102
{ACAD_REACTORS
330
EF
330
EF
102
}
330
4B
100
AcDbEntity
  8
0
  6
Continuous
 62
     7
100
AcDbCircle
 10
191.321855608167
 20
15.0573018186531
 30
0.0
 40
0.3333333333339965
100
AcDbArc
 50
180.0
 51
299.9816393688164
  0
ARC
  5
92
102
{ACAD_REACTORS
330
EF
330
EF
102
}
330
4B
100
AcDbEntity
  8
0
  6
Continuous
 62
     7
100
AcDbCircle
 10
191.321855608167
 20
19.9439783665993
 30
0.0
 40
0.3333333333332604
100
AcDbArc
 50
60.01836063118353
 51
180.0
  0
ARC
  5
93
102
{ACAD_REACTORS
330
EF
330
EF
102
}
330
4B
100
AcDbEntity
  8
0
  6
Continuous
 62
     7
100
AcDbCircle
 10
192.691308338763
 20
19.1539094835628
 30
0.0
 40
0.3333333333332746
100
AcDbArc
 50
240.0183606311793
 51
60.01835942367227
  0
ARC
  5
94
102
{ACAD_REACTORS
330
EF
330
EF
102
}
330
4B
100
AcDbEntity
  8
0
  6
Continuous
 62
     7
100
AcDbCircle
 10
192.691308338763
 20
17.5006400926262
 30
0.0
 40
0.3333333333333997
100
AcDbArc
 50
270.0
 51
90.0
  0
ARC
  5
95
102
{ACAD_REACTORS
330
EF
330
EF
102
}
330
4B
100
AcDbEntity
  8
0
  6
Continuous
 62
     7
100
AcDbCircle
 10
192.691308338763
 20
15.8473707016896
 30
0.0
 40
0.3333333333332619
100
AcDbArc
 50
299.9816393688163
 51
119.9816393688206
  0
ARC
  5
96
102
{ACAD_REACTORS
330
F0
330
F0
102
}
330
4B
100
AcDbEntity
  8
0
  6
Continuous
 62
     7
100
AcDbCircle
 10
187.253494909038
 20
20.7526980593071
 30
0.0
 40
0.2649662124751274
100
AcDbArc
 50
30.00000000000922
 51
180.0
  0
ARC
  5
97
102
{ACAD_REACTORS
330
F0
330
F0
102
}
330
4B
100
AcDbEntity
  8
0
  6
Continuous
 62
     7
100
AcDbCircle
 10
187.321862029896
 20
15.8473707016896
 30
0.0
 40
0.3333333333330017
100
AcDbArc
 50
180.0
 51
0.0
  0
ARC
  5
98
102
{ACAD_REACTORS
330
F0
330
F0
102
}
330
4B
100
AcDbEntity
  8
0
  6
Continuous
 62
     7
100
AcDbCircle
 10
188.655189950303
 20
17.8548279161004
 30
0.0
 40
0.1666666666662864
100
AcDbArc
 50
210.0000000000623
 51
329.9999999999426
  0
ARC
  5
99
102
{ACAD_REACTORS
330
F0
330
F0
102
}
330
4B
100
AcDbEntity
  8
0
  6
Continuous
 62
     7
100
AcDbCircle
 10
189.98851787071
 20
14.2880685085818
 30
0.0
 40
0.3333333333330017
100
AcDbArc
 50
180.0
 51
0.0
  0
ARC
  5
9A
102
{ACAD_REACTORS
330
F0
330
F0
102
}
330
4B
100
AcDbEntity
  8
0
  6
Continuous
 62
     7
100
AcDbCircle
 10
190.056884991568
 20
20.752698059307
 30
0.0
 40
0.2649662124759971
100
AcDbArc
 50
0.0
 51
149.9999999999752
  0
ARC
  5
9B
102
{ACAD_REACTORS
330
F1
330
F1
102
}
330
4B
100
AcDbEntity
  8
0
  6
Continuous
 62
     7
100
AcDbCircle
 10
185.988524292439
 20
19.9439783665993
 30
0.0
 40
0.3333333333339965
100
AcDbArc
 50
0.0
 51
180.0
  0
ARC
  5
9C
102
{ACAD_REACTORS
330
F1
330
F1
102
}
330
4B
100
AcDbEntity
  8
0
  6
Continuous
 62
     7
100
AcDbCircle
 10
186.321859827834
 20
15.2706619304882
 30
0.0
 40
0.66666886872801
100
AcDbArc
 50
180.0
 51
240.0183606311481
  0
ARC
  5
9D
102
{ACAD_REACTORS
330
F1
330
F1
102
}
330
4B
100
AcDbEntity
  8
0
  6
Continuous
 62
     7
100
AcDbCircle
 10
188.322919780923
 20
13.7313727224852
 30
0.0
 40
0.3333333333332604
100
AcDbArc
 50
240.0183606311836
 51
60.01836063118368
  0
ARC
  5
9E
102
{ACAD_REACTORS
330
F2
330
F2
102
}
330
4B
100
AcDbEntity
  8
0
  6
Continuous
 62
     7
100
AcDbCircle
 10
184.655189950303
 20
15.8473707016896
 30
0.0
 40
0.3333333333330017
100
AcDbArc
 50
180.0
 51
0.0
  0
ARC
  5
9F
102
{ACAD_REACTORS
330
F2
330
F2
102
}
330
4B
100
AcDbEntity
  8
0
  6
Continuous
 62
     7
100
AcDbCircle
 10
184.655189950303
 20
19.1539094835628
 30
0.0
 40
0.3333333333330017
100
AcDbArc
 50
0.0
 51
180.0
  0
LWPOLYLINE
  5
B1
330
4B
100
AcDbEntity
  8
Skizziergeometrie_ISO_
  6
Continuous
 62
     7
100
AcDbPolyline
 90
        2
 70
     0
 43
0.5
 10
19.980189950303
 20
45.0006400926262
 10
19.980189950303
 20
10.0006400926262
  0
LWPOLYLINE
  5
B2
330
4B
100
AcDbEntity
  8
Skizziergeometrie_ISO_
  6
Continuous
 62
     7
100
AcDbPolyline
 90
        2
 70
     0
 43
0.5
 10
189.655184537377
 20
14.2880685085818
 10
189.655184537377
 20
19.2535360148728
  0
LWPOLYLINE
  5
B3
330
4B
100
AcDbEntity
  8
Skizziergeometrie_ISO_
  6
Continuous
 62
     7
100
AcDbPolyline
 90
        2
 70
     0
 43
0.5
 10
189.655184537377
 20
19.2535360148728
 10
188.7995275176
 20
17.7714945827671
  0
LWPOLYLINE
  5
B4
330
4B
100
AcDbEntity
  8
Skizziergeometrie_ISO_
  6
Continuous
 62
     7
100
AcDbPolyline
 90
        2
 70
     0
 43
0.5
 10
188.510852383006
 20
17.7714945827671
 10
187.655195363229
 20
19.2535360148728
  0
LWPOLYLINE
  5
B5
330
4B
100
AcDbEntity
  8
Skizziergeometrie_ISO_
  6
Continuous
 62
     7
100
AcDbPolyline
 90
        2
 70
     0
 43
0.5
 10
187.655195363229
 20
19.2535360148728
 10
187.655195363229
 20
15.8473707016896
  0
LWPOLYLINE
  5
B6
330
4B
100
AcDbEntity
  8
Skizziergeometrie_ISO_
  6
Continuous
 62
     7
100
AcDbPolyline
 90
        2
 70
     0
 43
0.5
 10
180.238754675162
 20
17.6450043569675
 10
188.655189950303
 20
22.500640092627
  0
LWPOLYLINE
  5
B7
330
4B
100
AcDbEntity
  8
Skizziergeometrie_ISO_
  6
Continuous
 62
     7
100
AcDbPolyline
 90
        2
 70
     0
 43
0.5
 10
188.655189950303
 20
22.500640092627
 10
197.071625225444
 20
17.6450043569675
  0
LWPOLYLINE
  5
B8
330
4B
100
AcDbEntity
  8
Skizziergeometrie_ISO_
  6
Continuous
 62
     7
100
AcDbPolyline
 90
        2
 70
     0
 43
0.5
 10
197.071625225444
 20
17.3562758282849
 10
188.655189950303
 20
12.5006400926254
  0
LWPOLYLINE
  5
B9
330
4B
100
AcDbEntity
  8
Skizziergeometrie_ISO_
  6
Continuous
 62
     7
100
AcDbPolyline
 90
        2
 70
     0
 43
0.5
 10
188.655189950303
 20
12.5006400926254
 10
180.238754675162
 20
17.3562758282849
  0
LWPOLYLINE
  5
BA
330
4B
100
AcDbEntity
  8
Skizziergeometrie_ISO_
  6
Continuous
 62
     7
100
AcDbPolyline
 90
        2
 70
     0
 43
0.5
 10
186.988528696563
 20
15.8473707016896
 10
186.988528696562
 20
20.7526980593071
  0
LWPOLYLINE
  5
BB
330
4B
100
AcDbEntity
  8
Skizziergeometrie_ISO_
  6
Continuous
 62
     7
100
AcDbPolyline
 90
        2
 70
     0
 43
0.5
 10
187.482962380186
 20
20.8851811655447
 10
188.655189950303
 20
18.8548234560689
  0
LWPOLYLINE
  5
BC
330
4B
100
AcDbEntity
  8
Skizziergeometrie_ISO_
  6
Continuous
 62
     7
100
AcDbPolyline
 90
        2
 70
     0
 43
0.5
 10
190.321851204044
 20
14.2880685085818
 10
190.321851204044
 20
20.752698059307
  0
LWPOLYLINE
  5
BD
330
4B
100
AcDbEntity
  8
Skizziergeometrie_ISO_
  6
Continuous
 62
     7
100
AcDbPolyline
 90
        2
 70
     0
 43
0.5
 10
189.82741752042
 20
20.8851811655447
 10
188.655189950303
 20
18.8548234560689
  0
LWPOLYLINE
  5
BE
330
4B
100
AcDbEntity
  8
Skizziergeometrie_ISO_
  6
Continuous
 62
     7
100
AcDbPolyline
 90
        2
 70
     0
 43
0.5
 10
185.655190959106
 20
15.2706619304882
 10
185.655190959106
 20
19.9439783665993
  0
LWPOLYLINE
  5
BF
330
4B
100
AcDbEntity
  8
Skizziergeometrie_ISO_
  6
Continuous
 62
     7
100
AcDbPolyline
 90
        2
 70
     0
 43
0.5
 10
186.321857625773
 20
19.9439783665993
 10
186.321857625773
 20
15.270660658657
  0
LWPOLYLINE
  5
C0
330
4B
100
AcDbEntity
  8
Skizziergeometrie_ISO_
  6
Continuous
 62
     7
100
AcDbPolyline
 90
        2
 70
     0
 43
0.5
 10
186.321857625773
 20
15.270660658657
 10
188.489493932086
 20
14.0201012511681
  0
LWPOLYLINE
  5
C1
330
4B
100
AcDbEntity
  8
Skizziergeometrie_ISO_
  6
Continuous
 62
     7
100
AcDbPolyline
 90
        2
 70
     0
 43
0.5
 10
188.15634562976
 20
13.4426441938023
 10
185.988710425088
 20
14.6932029657285
  0
LWPOLYLINE
  5
C2
330
4B
100
AcDbEntity
  8
Skizziergeometrie_ISO_
  6
Continuous
 62
     7
100
AcDbPolyline
 90
        2
 70
     0
 43
0.5
 10
184.988523283636
 20
19.1539094835628
 10
184.988523283636
 20
15.8473707016896
  0
LWPOLYLINE
  5
C3
330
4B
100
AcDbEntity
  8
Skizziergeometrie_ISO_
  6
Continuous
 62
     7
100
AcDbPolyline
 90
        2
 70
     0
 43
0.5
 10
184.32185661697
 20
15.8473707016896
 10
184.32185661697
 20
19.1539094835628
  0
LWPOLYLINE
  5
C4
330
4B
100
AcDbEntity
  8
Skizziergeometrie_ISO_
  6
Continuous
 62
     7
100
AcDbPolyline
 90
        2
 70
     0
 43
0.5
 10
191.48842975933
 20
20.2327068952822
 10
192.857882489926
 20
19.4426380122457
  0
LWPOLYLINE
  5
C5
330
4B
100
AcDbEntity
  8
Skizziergeometrie_ISO_
  6
Continuous
 62
     7
100
AcDbPolyline
 90
        2
 70
     0
 43
0.5
 10
192.5247341876
 20
18.8651809548799
 10
191.6551889415
 20
19.3668416737836
  0
LWPOLYLINE
  5
C6
330
4B
100
AcDbEntity
  8
Skizziergeometrie_ISO_
  6
Continuous
 62
     7
100
AcDbPolyline
 90
        2
 70
     0
 43
0.5
 10
191.6551889415
 20
19.3668416737836
 10
191.6551889415
 20
17.8339734259596
  0
LWPOLYLINE
  5
C7
330
4B
100
AcDbEntity
  8
Skizziergeometrie_ISO_
  6
Continuous
 62
     7
100
AcDbPolyline
 90
        2
 70
     0
 43
0.5
 10
191.6551889415
 20
17.8339734259596
 10
192.691308338763
 20
17.8339734259596
  0
LWPOLYLINE
  5
C8
330
4B
100
AcDbEntity
  8
Skizziergeometrie_ISO_
  6
Continuous
 62
     7
100
AcDbPolyline
 90
        2
 70
     0
 43
0.5
 10
192.691308338763
 20
17.1673067592928
 10
191.6551889415
 20
17.1673067592928
  0
LWPOLYLINE
  5
C9
330
4B
100
AcDbEntity
  8
Skizziergeometrie_ISO_
  6
Continuous
 62
     7
100
AcDbPolyline
 90
        2
 70
     0
 43
0.5
 10
191.6551889415
 20
17.1673067592928
 10
191.6551889415
 20
15.6344385114688
  0
LWPOLYLINE
  5
CA
330
4B
100
AcDbEntity
  8
Skizziergeometrie_ISO_
  6
Continuous
 62
     7
100
AcDbPolyline
 90
        2
 70
     0
 43
0.5
 10
191.6551889415
 20
15.6344385114688
 10
192.5247341876
 20
16.1360992303725
  0
LWPOLYLINE
  5
CB
330
4B
100
AcDbEntity
  8
Skizziergeometrie_ISO_
  6
Continuous
 62
     7
100
AcDbPolyline
 90
        2
 70
     0
 43
0.5
 10
192.857882489926
 20
15.5586421730067
 10
191.48842975933
 20
14.7685732899702
  0
LWPOLYLINE
  5
CC
330
4B
100
AcDbEntity
  8
Skizziergeometrie_ISO_
  6
Continuous
 62
     7
100
AcDbPolyline
 90
        2
 70
     0
 43
0.5
 10
190.988522274833
 20
15.0573018186531
 10
190.988522274833
 20
19.9439783665993
  0
LWPOLYLINE
  5
CD
330
4B
100
AcDbEntity
  8
Skizziergeometrie_ISO_
  6
Continuous
 62
     7
100
AcDbPolyline
 90
        2
 70
     0
 43
0.5
 10
177.330189950303
 20
25.0006400926262
 10
177.330189950303
 20
10.0006400926262
  0
LWPOLYLINE
  5
CE
330
4B
100
AcDbEntity
  8
Skizziergeometrie_ISO_
  6
Continuous
 62
     7
100
AcDbPolyline
 90
        2
 70
     0
 43
0.5
 10
159.980189950303
 20
25.0006400926262
 10
159.980189950303
 20
10.0006400926262
  0
LWPOLYLINE
  5
CF
330
4B
100
AcDbEntity
  8
Skizziergeometrie_ISO_
  6
Continuous
 62
     7
100
AcDbPolyline
 90
        2
 70
     0
 43
0.5
 10
49.9801899503031
 20
10.0006400926262
 10
49.9801899503031
 20
25.0006400926262
  0
LWPOLYLINE
  5
D0
330
4B
100
AcDbEntity
  8
Skizziergeometrie_ISO_
  6
Continuous
 62
     7
100
AcDbPolyline
 90
        2
 70
     0
 43
0.5
 10
44.980189950303
 20
45.0006400926262
 10
44.980189950303
 20
25.0006400926262
  0
LWPOLYLINE
  5
D1
330
4B
100
AcDbEntity
  8
Skizziergeometrie_ISO_
  6
Continuous
 62
     7
100
AcDbPolyline
 90
        2
 70
     0
 43
0.5
 10
26.980189950303
 20
45.0006400926262
 10
26.980189950303
 20
25.0006400926262
  0
LWPOLYLINE
  5
D2
330
4B
100
AcDbEntity
  8
Skizziergeometrie_ISO_
  6
Continuous
 62
     7
100
AcDbPolyline
 90
        2
 70
     0
 43
0.5
 10
19.980189950303
 20
17.5006400926262
 10
49.9801899503031
 20
17.5006400926262
  0
LWPOLYLINE
  5
D3
330
4B
100
AcDbEntity
  8
Skizziergeometrie_ISO_
  6
Continuous
 62
     7
100
AcDbPolyline
 90
        2
 70
     0
 43
0.5
 10
19.980189950303
 20
25.0006400926262
 10
199.980189950303
 20
25.0006400926262
  0
LWPOLYLINE
  5
D4
330
4B
100
AcDbEntity
  8
Skizziergeometrie_ISO_
  6
Continuous
 62
     7
100
AcDbPolyline
 90
        2
 70
     0
 43
0.5
 10
19.980189950303
 20
30.0006400926262
 10
199.980189950303
 20
30.0006400926262
  0
LWPOLYLINE
  5
D5
330
4B
100
AcDbEntity
  8
Skizziergeometrie_ISO_
  6
Continuous
 62
     7
100
AcDbPolyline
 90
        2
 70
     0
 43
0.5
 10
19.980189950303
 20
35.0006400926262
 10
199.980189950303
 20
35.0006400926262
  0
LWPOLYLINE
  5
D6
330
4B
100
AcDbEntity
  8
Skizziergeometrie_ISO_
  6
Continuous
 62
     7
100
AcDbPolyline
 90
        2
 70
     0
 43
0.5
 10
19.980189950303
 20
40.0006400926262
 10
199.980189950303
 20
40.0006400926262
  0
LWPOLYLINE
  5
D7
330
4B
100
AcDbEntity
  8
Skizziergeometrie_ISO_
  6
Continuous
 62
     7
100
AcDbPolyline
 90
        2
 70
     0
 43
0.5
 10
19.980189950303
 20
45.0006400926262
 10
199.980189950303
 20
45.0006400926262
  0
LWPOLYLINE
  5
D8
330
4B
100
AcDbEntity
  8
Skizziergeometrie_ISO_
  6
Continuous
 62
     7
100
AcDbPolyline
 90
        2
 70
     0
 43
0.5
 10
188.510852383006
 20
17.77149458276709
 42
0.57735026918893
 10
188.7995275176
 20
17.77149458276711
  0
LWPOLYLINE
  5
D9
330
4B
100
AcDbEntity
  8
Skizziergeometrie_ISO_
  6
Continuous
 62
     7
100
AcDbPolyline
 90
        2
 70
     0
 43
0.5
 10
185.655190959106
 20
15.2706619304882
 42
0.26803505952205
 10
185.988710425088
 20
14.6932029657285
  0
LWPOLYLINE
  5
DA
330
4B
100
AcDbEntity
  8
Skizziergeometrie_ISO_
  6
Continuous
 62
     7
100
AcDbPolyline
 90
        2
 70
     0
 43
0.5
 10
180.238754675162
 20
17.6450043569675
 42
0.57756392459859
 10
180.238754675162
 20
17.3562758282849
  0
LWPOLYLINE
  5
DB
330
4B
100
AcDbEntity
  8
Skizziergeometrie_ISO_
  6
Continuous
 62
     7
100
AcDbPolyline
 90
        2
 70
     0
 43
0.5
 10
197.071625225444
 20
17.3562758282849
 42
0.57756392459859
 10
197.071625225444
 20
17.6450043569675
  0
LWPOLYLINE
  5
DC
330
4B
100
AcDbEntity
  8
Skizziergeometrie_ISO_
  6
Continuous
 62
     7
100
AcDbPolyline
 90
        2
 70
     0
 43
0.5
 10
191.48842975933
 20
20.2327068952822
 42
0.57724345630757
 10
190.988522274833
 20
19.9439783665993
  0
LWPOLYLINE
  5
DD
330
4B
100
AcDbEntity
  8
Skizziergeometrie_ISO_
  6
Continuous
 62
     7
100
AcDbPolyline
 90
        2
 70
     0
 43
0.5
 10
190.988522274833
 20
15.0573018186531
 42
0.57724345630757
 10
191.48842975933
 20
14.7685732899702
  0
LWPOLYLINE
  5
DE
330
4B
100
AcDbEntity
  8
Skizziergeometrie_ISO_
  6
Continuous
 62
     7
100
AcDbPolyline
 90
        2
 70
     0
 43
0.5
 10
187.482962380186
 20
20.8851811655447
 42
0.76732698797888
 10
186.988528696562
 20
20.7526980593071
  0
LWPOLYLINE
  5
DF
330
4B
100
AcDbEntity
  8
Skizziergeometrie_ISO_
  6
Continuous
 62
     7
100
AcDbPolyline
 90
        2
 70
     0
 43
0.5
 10
186.988528696563
 20
15.8473707016896
 42
1.0
 10
187.655195363229
 20
15.8473707016896
  0
LWPOLYLINE
  5
E0
330
4B
100
AcDbEntity
  8
Skizziergeometrie_ISO_
  6
Continuous
 62
     7
100
AcDbPolyline
 90
        2
 70
     0
 43
0.5
 10
189.655184537377
 20
14.2880685085818
 42
1.0
 10
190.321851204044
 20
14.2880685085818
  0
LWPOLYLINE
  5
E1
330
4B
100
AcDbEntity
  8
Skizziergeometrie_ISO_
  6
Continuous
 62
     7
100
AcDbPolyline
 90
        2
 70
     0
 43
0.5
 10
190.321851204044
 20
20.752698059307
 42
0.76732698797879
 10
189.82741752042
 20
20.8851811655447
  0
LWPOLYLINE
  5
E2
330
4B
100
AcDbEntity
  8
Skizziergeometrie_ISO_
  6
Continuous
 62
     7
100
AcDbPolyline
 90
        2
 70
     0
 43
0.5
 10
186.321857625773
 20
19.9439783665993
 42
1.0
 10
185.655190959106
 20
19.9439783665993
  0
LWPOLYLINE
  5
E3
330
4B
100
AcDbEntity
  8
Skizziergeometrie_ISO_
  6
Continuous
 62
     7
100
AcDbPolyline
 90
        2
 70
     0
 43
0.5
 10
188.15634562976
 20
13.4426441938023
 42
1.0
 10
188.489493932086
 20
14.0201012511681
  0
LWPOLYLINE
  5
E4
330
4B
100
AcDbEntity
  8
Skizziergeometrie_ISO_
  6
Continuous
 62
     7
100
AcDbPolyline
 90
        2
 70
     0
 43
0.5
 10
184.988523283636
 20
19.1539094835628
 42
1.0
 10
184.32185661697
 20
19.1539094835628
  0
LWPOLYLINE
  5
E5
330
4B
100
AcDbEntity
  8
Skizziergeometrie_ISO_
  6
Continuous
 62
     7
100
AcDbPolyline
 90
        2
 70
     0
 43
0.5
 10
184.32185661697
 20
15.8473707016896
 42
1.0
 10
184.988523283636
 20
15.8473707016896
  0
LWPOLYLINE
  5
E6
330
4B
100
AcDbEntity
  8
Skizziergeometrie_ISO_
  6
Continuous
 62
     7
100
AcDbPolyline
 90
        2
 70
     0
 43
0.5
 10
192.5247341876
 20
18.8651809548799
 42
1.00000000000005
 10
192.857882489926
 20
19.4426380122457
  0
LWPOLYLINE
  5
E7
330
4B
100
AcDbEntity
  8
Skizziergeometrie_ISO_
  6
Continuous
 62
     7
100
AcDbPolyline
 90
        2
 70
     0
 43
0.5
 10
192.691308338763
 20
17.1673067592928
 42
1.0
 10
192.691308338763
 20
17.8339734259596
  0
LWPOLYLINE
  5
E8
330
4B
100
AcDbEntity
  8
Skizziergeometrie_ISO_
  6
Continuous
 62
     7
100
AcDbPolyline
 90
        2
 70
     0
 43
0.5
 10
192.857882489926
 20
15.5586421730067
 42
1.00000000000005
 10
192.5247341876
 20
16.1360992303725
  0
MTEXT
  5
EA
330
4B
100
AcDbEntity
  8
Symbole_ISO_
 62
     7
100
AcDbMText
 10
39.980189950303
 20
21.2506400926262
 30
0.0
 40
3.49999994039535
 41
0.0
 71
     5
 72
     1
  1
04.01.2007
  7
CONVERTER_11
 73
     1
 44
1.0
  0
MTEXT
  5
EC
330
4B
100
AcDbEntity
  8
Symbole_ISO_
 62
     7
100
AcDbMText
 10
168.655189950303
 20
22.5006400926262
 30
0.0
 40
2.5
 41
0.0
 71
     5
 72
     1
  1
Scale
  7
CONVERTER_12
 73
     1
 44
1.0
  0
MTEXT
  5
ED
330
4B
100
AcDbEntity
  8
Symbole_ISO_
 62
     7
100
AcDbMText
 10
20.980189950303
 20
13.7506400926262
 30
0.0
 40
2.5
 41
0.0
 71
     4
 72
     1
  1
Sign.
  7
CONVERTER_12
 73
     1
 44
1.0
  0
MTEXT
  5
EE
330
4B
100
AcDbEntity
  8
Symbole_ISO_
 62
     7
100
AcDbMText
 10
20.980189950303
 20
21.2506400926262
 30
0.0
 40
2.5
 41
0.0
 71
     4
 72
     1
  1
Date
  7
CONVERTER_12
 73
     1
 44
1.0
  0
HATCH
  5
EF
330
4B
100
AcDbEntity
  8
Schraffur
  6
Continuous
 62
     7
100
AcDbHatch
 10
0.0
 20
0.0
 30
0.0
210
0.0
220
0.0
230
1.0
  2
SOLID
 70
     1
 71
     1
 91
        1
 92
        1
 93
       14
 72
     2
 10
192.691308338763
 20
19.1539094835628
 40
0.3333333333332746
 50
299.9816405763278
 51
479.9816393688208
 73
     0
 72
     1
 10
192.5247341876
 20
18.8651809548799
 11
191.6551889415
 21
19.3668416737836
 72
     1
 10
191.6551889415
 20
19.3668416737836
 11
191.6551889415
 21
17.8339734259596
 72
     1
 10
191.6551889415
 20
17.8339734259596
 11
192.691308338763
 21
17.8339734259596
 72
     2
 10
192.691308338763
 20
17.5006400926262
 40
0.3333333333333997
 50
270.0
 51
450.0
 73
     0
 72
     1
 10
192.691308338763
 20
17.1673067592928
 11
191.6551889415
 21
17.1673067592928
 72
     1
 10
191.6551889415
 20
17.1673067592928
 11
191.6551889415
 21
15.6344385114688
 72
     1
 10
191.6551889415
 20
15.6344385114688
 11
192.5247341876
 21
16.1360992303725
 72
     2
 10
192.691308338763
 20
15.8473707016896
 40
0.3333333333332619
 50
240.0183606311795
 51
420.0183606311837
 73
     0
 72
     1
 10
192.857882489926
 20
15.5586421730067
 11
191.48842975933
 21
14.7685732899702
 72
     2
 10
191.321855608167
 20
15.0573018186531
 40
0.3333333333339965
 50
60.01836063118353
 51
180.0
 73
     0
 72
     1
 10
190.988522274833
 20
15.0573018186531
 11
190.988522274833
 21
19.9439783665993
 72
     2
 10
191.321855608167
 20
19.9439783665993
 40
0.3333333333332604
 50
180.0
 51
299.9816393688164
 73
     0
 72
     1
 10
191.48842975933
 20
20.2327068952822
 11
192.857882489926
 21
19.4426380122457
 97
       14
330
53
330
91
330
54
330
92
330
55
330
93
330
56
330
57
330
58
330
94
330
59
330
5A
330
5B
330
95
 75
     0
 76
     1
 98
        1
 10
0.0
 20
0.0
  0
HATCH
  5
F0
330
4B
100
AcDbEntity
  8
Schraffur
  6
Continuous
 62
     7
100
AcDbHatch
 10
0.0
 20
0.0
 30
0.0
210
0.0
220
0.0
230
1.0
  2
SOLID
 70
     1
 71
     1
 91
        1
 92
        1
 93
       13
 72
     2
 10
187.253494909038
 20
20.7526980593071
 40
0.2649662124751274
 50
30.00000000000922
 51
180.0
 73
     1
 72
     1
 10
186.988528696562
 20
20.7526980593071
 11
186.988528696563
 21
15.8473707016896
 72
     2
 10
187.321862029896
 20
15.8473707016896
 40
0.3333333333330017
 50
180.0
 51
360.0
 73
     1
 72
     1
 10
187.655195363229
 20
15.8473707016896
 11
187.655195363229
 21
19.2535360148728
 72
     1
 10
187.655195363229
 20
19.2535360148728
 11
188.510852383006
 21
17.7714945827671
 72
     2
 10
188.655189950303
 20
17.8548279161004
 40
0.1666666666662864
 50
210.0000000000623
 51
329.9999999999426
 73
     1
 72
     1
 10
188.7995275176
 20
17.7714945827671
 11
189.655184537377
 21
19.2535360148728
 72
     1
 10
189.655184537377
 20
19.2535360148728
 11
189.655184537377
 21
14.2880685085818
 72
     2
 10
189.98851787071
 20
14.2880685085818
 40
0.3333333333330017
 50
180.0
 51
360.0
 73
     1
 72
     1
 10
190.321851204044
 20
14.2880685085818
 11
190.321851204044
 21
20.752698059307
 72
     2
 10
190.056884991568
 20
20.752698059307
 40
0.2649662124759971
 50
0.0
 51
149.9999999999752
 73
     1
 72
     1
 10
189.82741752042
 20
20.8851811655447
 11
188.655189950303
 21
18.8548234560689
 72
     1
 10
188.655189950303
 20
18.8548234560689
 11
187.482962380186
 21
20.8851811655447
 97
       13
330
62
330
9A
330
61
330
99
330
60
330
5F
330
98
330
5E
330
5D
330
97
330
5C
330
96
330
63
 75
     0
 76
     1
 98
        1
 10
0.0
 20
0.0
  0
HATCH
  5
F1
330
4B
100
AcDbEntity
  8
Schraffur
  6
Continuous
 62
     7
100
AcDbHatch
 10
0.0
 20
0.0
 30
0.0
210
0.0
220
0.0
230
1.0
  2
SOLID
 70
     1
 71
     1
 91
        1
 92
        1
 93
        7
 72
     1
 10
186.321857625773
 20
15.270660658657
 11
186.321857625773
 21
19.9439783665993
 72
     2
 10
185.988524292439
 20
19.9439783665993
 40
0.3333333333339965
 50
0.0
 51
180.0
 73
     1
 72
     1
 10
185.655190959106
 20
19.9439783665993
 11
185.655190959106
 21
15.2706619304882
 72
     2
 10
186.321859827834
 20
15.2706619304882
 40
0.66666886872801
 50
180.0
 51
240.0183606311481
 73
     1
 72
     1
 10
185.988710425088
 20
14.6932029657285
 11
188.15634562976
 21
13.4426441938023
 72
     2
 10
188.322919780923
 20
13.7313727224852
 40
0.3333333333332604
 50
240.0183606311836
 51
420.0183606311837
 73
     1
 72
     1
 10
188.489493932086
 20
14.0201012511681
 11
186.321857625773
 21
15.270660658657
 97
        7
330
9D
330
66
330
9C
330
65
330
9B
330
64
330
67
 75
     0
 76
     1
 98
        1
 10
0.0
 20
0.0
  0
HATCH
  5
F2
330
4B
100
AcDbEntity
  8
Schraffur
  6
Continuous
 62
     7
100
AcDbHatch
 10
0.0
 20
0.0
 30
0.0
210
0.0
220
0.0
230
1.0
  2
SOLID
 70
     1
 71
     1
 91
        1
 92
        1
 93
        4
 72
     1
 10
184.988523283636
 20
19.1539094835628
 11
184.988523283636
 21
15.8473707016896
 72
     2
 10
184.655189950303
 20
15.8473707016896
 40
0.3333333333330017
 50
0.0
 51
180.0
 73
     0
 72
     1
 10
184.32185661697
 20
15.8473707016896
 11
184.32185661697
 21
19.1539094835628
 72
     2
 10
184.655189950303
 20
19.1539094835628
 40
0.3333333333330017
 50
180.0
 51
360.0
 73
     0
 97
        4
330
68
330
9E
330
69
330
9F
 75
     0
 76
     1
 98
        1
 10
0.0
 20
0.0
  0
ENDBLK
  5
4D
330
4B
100
AcDbEntity
  8
0
100
AcDbBlockEnd
  0
BLOCK
  5
4F
330
4E
100
AcDbEntity
  8
0
100
AcDbBlockBegin
  2
Ränder_Ilme_Rahmen_A4_quer
 70
     0
 10
0.0
 20
0.0
 30
0.0
  3
Ränder_Ilme_Rahmen_A4_quer
  1

  0
LWPOLYLINE
  5
F8
330
4E
100
AcDbEntity
  8
Skizziergeometrie_ISO_
  6
Continuous
 62
     7
100
AcDbPolyline
 90
        2
 70
     0
 43
0.5
 10
287.0
 20
190.0
 10
287.0
 20
10.0
  0
LWPOLYLINE
  5
F9
330
4E
100
AcDbEntity
  8
Skizziergeometrie_ISO_
  6
Continuous
 62
     7
100
AcDbPolyline
 90
        2
 70
     0
 43
0.5
 10
148.5
 20
210.0
 10
148.5
 20
196.0
  0
LWPOLYLINE
  5
FA
330
4E
100
AcDbEntity
  8
Skizziergeometrie_ISO_
  6
Continuous
 62
     7
100
AcDbPolyline
 90
        2
 70
     0
 43
0.5
 10
9.99999999999998
 20
9.99999999999995
 10
287.0
 20
10.0
  0
LWPOLYLINE
  5
FB
330
4E
100
AcDbEntity
  8
Skizziergeometrie_ISO_
  6
Continuous
 62
     7
100
AcDbPolyline
 90
        2
 70
     0
 43
0.5
 10
10.0
 20
190.0
 10
287.0
 20
190.0
  0
LWPOLYLINE
  5
FC
330
4E
100
AcDbEntity
  8
Skizziergeometrie_ISO_
  6
Continuous
 62
     7
100
AcDbPolyline
 90
        2
 70
     0
 43
0.5
 10
9.99999999999998
 20
9.99999999999995
 10
10.0
 20
190.0
  0
MTEXT
  5
FD
330
4E
100
AcDbEntity
  8
Symbole_ISO_
 62
     7
100
AcDbMText
 10
148.5
 20
196.0
 30
0.0
 40
3.5
 41
0.0
 71
     2
 72
     1
  1
Diritti riservati     All rights reseved
  7
CONVERTER_12
 73
     1
 44
1.0
  0
ENDBLK
  5
50
330
4E
100
AcDbEntity
  8
0
100
AcDbBlockEnd
  0
BLOCK
  5
359
330
352
100
AcDbEntity
  8
0
100
AcDbBlockBegin
  2
*D3
 70
     1
 10
0.0
 20
0.0
 30
0.0
  3
*D3
  1

  0
LINE
  5
353
330
352
100
AcDbEntity
  8
Bemaßungen_TC_020513_DIN_
  6
Continuous
 62
     7
100
AcDbLine
 10
184.1303505052897
 20
187.07864089414
 30
0.0
 11
184.1303505052897
 21
207.07864089414
 31
0.0
  0
LINE
  5
354
330
352
100
AcDbEntity
  8
Bemaßungen_TC_020513_DIN_
  6
Continuous
 62
     7
100
AcDbLine
 10
202.13035050529
 20
187.07864089414
 30
0.0
 11
180.1303505052897
 21
187.07864089414
 31
0.0
  0
LINE
  5
355
330
352
100
AcDbEntity
  8
Bemaßungen_TC_020513_DIN_
  6
Continuous
 62
     7
100
AcDbLine
 10
202.13035050529
 20
207.07864089414
 30
0.0
 11
180.1303505052897
 21
207.07864089414
 31
0.0
  0
SOLID
  5
356
330
352
100
AcDbEntity
  8
Bemaßungen_TC_020513_DIN_
 62
     7
100
AcDbTrace
 10
183.4720880173527
 20
192.07864089414
 30
0.0
 11
184.7886129932267
 21
192.07864089414
 31
0.0
 12
184.1303505052897
 22
187.07864089414
 32
0.0
 13
184.1303505052897
 23
187.07864089414
 33
0.0
  0
SOLID
  5
357
330
352
100
AcDbEntity
  8
Bemaßungen_TC_020513_DIN_
 62
     7
100
AcDbTrace
 10
184.7886129932267
 20
202.07864089414
 30
0.0
 11
183.4720880173527
 21
202.07864089414
 31
0.0
 12
184.1303505052897
 22
207.07864089414
 32
0.0
 13
184.1303505052897
 23
207.07864089414
 33
0.0
  0
MTEXT
  5
358
330
352
100
AcDbEntity
  8
Bemaßungen_TC_020513_DIN_
 62
     7
100
AcDbMText
 10
178.8126769358925
 20
191.6172402574863
 30
0.0
 40
7.0
 41
0.0
 71
     7
 72
     1
  1
M20
  7
CONVERTER_15
 11
0.0
 21
1.0
 31
0.0
 73
     1
 44
0.60024009603842
  0
ENDBLK
  5
35A
330
352
100
AcDbEntity
  8
0
100
AcDbBlockEnd
  0
BLOCK
  5
364
330
35D
100
AcDbEntity
  8
0
100
AcDbBlockBegin
  2
*D4
 70
     1
 10
0.0
 20
0.0
 30
0.0
  3
*D4
  1

  0
LINE
  5
35E
330
35D
100
AcDbEntity
  8
Bemaßungen_TC_020513_DIN_
  6
Continuous
 62
     7
100
AcDbLine
 10
408.156223142551
 20
311.3286513297418
 30
0.0
 11
483.156223142557
 21
311.3286513297418
 31
0.0
  0
LINE
  5
35F
330
35D
100
AcDbEntity
  8
Bemaßungen_TC_020513_DIN_
  6
Continuous
 62
     7
100
AcDbLine
 10
408.156223142551
 20
293.32864089414
 30
0.0
 11
408.156223142551
 21
315.3286513297418
 31
0.0
  0
LINE
  5
360
330
35D
100
AcDbEntity
  8
Bemaßungen_TC_020513_DIN_
  6
Continuous
 62
     7
100
AcDbLine
 10
483.156223142557
 20
234.32864089414
 30
0.0
 11
483.156223142557
 21
315.3286513297418
 31
0.0
  0
SOLID
  5
361
330
35D
100
AcDbEntity
  8
Bemaßungen_TC_020513_DIN_
 62
     7
100
AcDbTrace
 10
413.156223142551
 20
311.9869138176787
 30
0.0
 11
413.156223142551
 21
310.6703888418048
 31
0.0
 12
408.156223142551
 22
311.3286513297418
 32
0.0
 13
408.156223142551
 23
311.3286513297418
 33
0.0
  0
SOLID
  5
362
330
35D
100
AcDbEntity
  8
Bemaßungen_TC_020513_DIN_
 62
     7
100
AcDbTrace
 10
478.156223142557
 20
310.6703888418048
 30
0.0
 11
478.156223142557
 21
311.9869138176787
 31
0.0
 12
483.156223142557
 22
311.3286513297418
 32
0.0
 13
483.156223142557
 23
311.3286513297418
 33
0.0
  0
MTEXT
  5
363
330
35D
100
AcDbEntity
  8
Bemaßungen_TC_020513_DIN_
 62
     7
100
AcDbMText
 10
443.4683079869279
 20
316.6176580072611
 30
0.0
 40
7.0
 41
0.0
 71
     7
 72
     1
  1
75
  7
CONVERTER_15
 11
0.9999999999882478
 21
4.848136811095759E-6
 31
0.0
 73
     1
 44
0.60024009603842
  0
ENDBLK
  5
365
330
35D
100
AcDbEntity
  8
0
100
AcDbBlockEnd
  0
BLOCK
  5
36F
330
368
100
AcDbEntity
  8
0
100
AcDbBlockBegin
  2
*D5
 70
     1
 10
0.0
 20
0.0
 30
0.0
  3
*D5
  1

  0
LINE
  5
369
330
368
100
AcDbEntity
  8
Bemaßungen_TC_020513_DIN_
  6
Continuous
 62
     7
100
AcDbLine
 10
426.406223142548
 20
140.5786513297413
 30
0.0
 11
483.406223142548
 21
140.5786513297413
 31
0.0
  0
LINE
  5
36A
330
368
100
AcDbEntity
  8
Bemaßungen_TC_020513_DIN_
  6
Continuous
 62
     7
100
AcDbLine
 10
426.406223142548
 20
182.5786408941396
 30
0.0
 11
426.406223142548
 21
136.5786513297413
 31
0.0
  0
LINE
  5
36B
330
368
100
AcDbEntity
  8
Bemaßungen_TC_020513_DIN_
  6
Continuous
 62
     7
100
AcDbLine
 10
483.406223142548
 20
180.5786408941396
 30
0.0
 11
483.406223142548
 21
136.5786513297413
 31
0.0
  0
SOLID
  5
36C
330
368
100
AcDbEntity
  8
Bemaßungen_TC_020513_DIN_
 62
     7
100
AcDbTrace
 10
431.406223142548
 20
141.2369138176783
 30
0.0
 11
431.406223142548
 21
139.9203888418043
 31
0.0
 12
426.406223142548
 22
140.5786513297413
 32
0.0
 13
426.406223142548
 23
140.5786513297413
 33
0.0
  0
SOLID
  5
36D
330
368
100
AcDbEntity
  8
Bemaßungen_TC_020513_DIN_
 62
     7
100
AcDbTrace
 10
478.406223142548
 20
139.9203888418043
 30
0.0
 11
478.406223142548
 21
141.2369138176783
 31
0.0
 12
483.406223142548
 22
140.5786513297413
 32
0.0
 13
483.406223142548
 23
140.5786513297413
 33
0.0
  0
MTEXT
  5
36E
330
368
100
AcDbEntity
  8
Bemaßungen_TC_020513_DIN_
 62
     7
100
AcDbMText
 10
452.7509206225001
 20
145.2059665498145
 30
0.0
 40
7.0
 41
0.0
 71
     7
 72
     1
  1
52
  7
CONVERTER_15
 11
0.9999999999882478
 21
4.848136811095759E-6
 31
0.0
 73
     1
 44
0.60024009603842
  0
ENDBLK
  5
370
330
368
100
AcDbEntity
  8
0
100
AcDbBlockEnd
  0
BLOCK
  5
37A
330
373
100
AcDbEntity
  8
0
100
AcDbBlockBegin
  2
*D6
 70
     1
 10
0.0
 20
0.0
 30
0.0
  3
*D6
  1

  0
LINE
  5
374
330
373
100
AcDbEntity
  8
Bemaßungen_TC_020513_DIN_
  6
Continuous
 62
     7
100
AcDbLine
 10
477.406223142549
 20
157.5786513297413
 30
0.0
 11
432.406223142549
 21
157.5786513297413
 31
0.0
  0
LINE
  5
375
330
373
100
AcDbEntity
  8
Bemaßungen_TC_020513_DIN_
  6
Continuous
 62
     7
100
AcDbLine
 10
477.406223142549
 20
175.5786408941396
 30
0.0
 11
477.406223142549
 21
153.5786513297413
 31
0.0
  0
LINE
  5
376
330
373
100
AcDbEntity
  8
Bemaßungen_TC_020513_DIN_
  6
Continuous
 62
     7
100
AcDbLine
 10
432.406223142549
 20
175.5786408941396
 30
0.0
 11
432.406223142549
 21
153.5786513297413
 31
0.0
  0
SOLID
  5
377
330
373
100
AcDbEntity
  8
Bemaßungen_TC_020513_DIN_
 62
     7
100
AcDbTrace
 10
472.406223142549
 20
156.9203888418043
 30
0.0
 11
472.406223142549
 21
158.2369138176783
 31
0.0
 12
477.406223142549
 22
157.5786513297413
 32
0.0
 13
477.406223142549
 23
157.5786513297413
 33
0.0
  0
SOLID
  5
378
330
373
100
AcDbEntity
  8
Bemaßungen_TC_020513_DIN_
 62
     7
100
AcDbTrace
 10
437.406223142549
 20
158.2369138176783
 30
0.0
 11
437.406223142549
 21
156.9203888418043
 31
0.0
 12
432.406223142549
 22
157.5786513297413
 32
0.0
 13
432.406223142549
 23
157.5786513297413
 33
0.0
  0
MTEXT
  5
379
330
373
100
AcDbEntity
  8
Bemaßungen_TC_020513_DIN_
 62
     7
100
AcDbMText
 10
452.5487992036752
 20
162.2059664649721
 30
0.0
 40
7.0
 41
0.0
 71
     7
 72
     1
  1
40
  7
CONVERTER_15
 11
0.9999999999882478
 21
4.848136811095759E-6
 31
0.0
 73
     1
 44
0.60024009603842
  0
ENDBLK
  5
37B
330
373
100
AcDbEntity
  8
0
100
AcDbBlockEnd
  0
BLOCK
  5
385
330
37E
100
AcDbEntity
  8
0
100
AcDbBlockBegin
  2
*D7
 70
     1
 10
0.0
 20
0.0
 30
0.0
  3
*D7
  1

  0
LINE
  5
37F
330
37E
100
AcDbEntity
  8
Bemaßungen_TC_020513_DIN_
  6
Continuous
 62
     7
100
AcDbLine
 10
538.4062231425472
 20
239.57864089414
 30
0.0
 11
538.4062231425472
 21
182.57864089414
 31
0.0
  0
LINE
  5
380
330
37E
100
AcDbEntity
  8
Bemaßungen_TC_020513_DIN_
  6
Continuous
 62
     7
100
AcDbLine
 10
472.906223142551
 20
239.57864089414
 30
0.0
 11
542.4062231425472
 21
239.57864089414
 31
0.0
  0
LINE
  5
381
330
37E
100
AcDbEntity
  8
Bemaßungen_TC_020513_DIN_
  6
Continuous
 62
     7
100
AcDbLine
 10
484.406223142547
 20
182.57864089414
 30
0.0
 11
542.4062231425472
 21
182.57864089414
 31
0.0
  0
SOLID
  5
382
330
37E
100
AcDbEntity
  8
Bemaßungen_TC_020513_DIN_
 62
     7
100
AcDbTrace
 10
539.0644856304842
 20
234.57864089414
 30
0.0
 11
537.7479606546102
 21
234.57864089414
 31
0.0
 12
538.4062231425472
 22
239.57864089414
 32
0.0
 13
538.4062231425472
 23
239.57864089414
 33
0.0
  0
SOLID
  5
383
330
37E
100
AcDbEntity
  8
Bemaßungen_TC_020513_DIN_
 62
     7
100
AcDbTrace
 10
537.7479606546102
 20
187.57864089414
 30
0.0
 11
539.0644856304842
 21
187.57864089414
 31
0.0
 12
538.4062231425472
 22
182.57864089414
 32
0.0
 13
538.4062231425472
 23
182.57864089414
 33
0.0
  0
MTEXT
  5
384
330
37E
100
AcDbEntity
  8
Bemaßungen_TC_020513_DIN_
 62
     7
100
AcDbMText
 10
533.1171989592345
 20
216.8883316626713
 30
0.0
 40
7.0
 41
0.0
 71
     7
 72
     1
  1
57
  7
CONVERTER_15
 11
0.0
 21
1.0
 31
0.0
 73
     1
 44
0.60024009603842
  0
ENDBLK
  5
386
330
37E
100
AcDbEntity
  8
0
100
AcDbBlockEnd
  0
BLOCK
  5
392
330
389
100
AcDbEntity
  8
0
100
AcDbBlockBegin
  2
*D8
 70
     1
 10
0.0
 20
0.0
 30
0.0
  3
*D8
  1

  0
LINE
  5
38A
330
389
100
AcDbEntity
  8
Bemaßungen_TC_020513_DIN_
  6
Continuous
 62
     7
100
AcDbLine
 10
496.021573443635
 20
196.57864089414
 30
0.0
 11
496.021573443635
 21
186.57864089414
 31
0.0
  0
LINE
  5
38B
330
389
100
AcDbEntity
  8
Bemaßungen_TC_020513_DIN_
  6
Continuous
 62
     7
100
AcDbLine
 10
496.021573443635
 20
186.57864089414
 30
0.0
 11
496.021573443635
 21
182.57864089414
 31
0.0
  0
LINE
  5
38C
330
389
100
AcDbEntity
  8
Bemaßungen_TC_020513_DIN_
  6
Continuous
 62
     7
100
AcDbLine
 10
496.021573443635
 20
182.57864089414
 30
0.0
 11
496.021573443635
 21
167.606894645845
 31
0.0
  0
LINE
  5
38D
330
389
100
AcDbEntity
  8
Bemaßungen_TC_020513_DIN_
  6
Continuous
 62
     7
100
AcDbLine
 10
484.406223142547
 20
186.57864089414
 30
0.0
 11
500.021573443635
 21
186.57864089414
 31
0.0
  0
LINE
  5
38E
330
389
100
AcDbEntity
  8
Bemaßungen_TC_020513_DIN_
  6
Continuous
 62
     7
100
AcDbLine
 10
484.406223142547
 20
182.57864089414
 30
0.0
 11
500.021573443635
 21
182.57864089414
 31
0.0
  0
SOLID
  5
38F
330
389
100
AcDbEntity
  8
Bemaßungen_TC_020513_DIN_
 62
     7
100
AcDbTrace
 10
495.3633109556981
 20
191.57864089414
 30
0.0
 11
496.679835931572
 21
191.57864089414
 31
0.0
 12
496.021573443635
 22
186.57864089414
 32
0.0
 13
496.021573443635
 23
186.57864089414
 33
0.0
  0
SOLID
  5
390
330
389
100
AcDbEntity
  8
Bemaßungen_TC_020513_DIN_
 62
     7
100
AcDbTrace
 10
496.679835931572
 20
177.57864089414
 30
0.0
 11
495.3633109556981
 21
177.57864089414
 31
0.0
 12
496.021573443635
 22
182.57864089414
 32
0.0
 13
496.021573443635
 23
182.57864089414
 33
0.0
  0
MTEXT
  5
391
330
389
100
AcDbEntity
  8
Bemaßungen_TC_020513_DIN_
 62
     7
100
AcDbMText
 10
490.921573443635
 20
167.606894645845
 30
0.0
 40
7.0
 41
0.0
 71
     7
 72
     1
  1
4
  7
CONVERTER_15
 11
0.0
 21
1.0
 31
0.0
 73
     1
 44
0.60024009603842
  0
ENDBLK
  5
393
330
389
100
AcDbEntity
  8
0
100
AcDbBlockEnd
  0
BLOCK
  5
39D
330
396
100
AcDbEntity
  8
0
100
AcDbBlockBegin
  2
*D9
 70
     1
 10
0.0
 20
0.0
 30
0.0
  3
*D9
  1

  0
LINE
  5
397
330
396
100
AcDbEntity
  8
Bemaßungen_TC_020513_DIN_
  6
Continuous
 62
     7
100
AcDbLine
 10
203.63035050529
 20
138.5786617653562
 30
0.0
 11
297.13035050529
 21
138.5786617653562
 31
0.0
  0
LINE
  5
398
330
396
100
AcDbEntity
  8
Bemaßungen_TC_020513_DIN_
  6
Continuous
 62
     7
100
AcDbLine
 10
203.63035050529
 20
180.57864089414
 30
0.0
 11
203.63035050529
 21
134.5786617653562
 31
0.0
  0
LINE
  5
399
330
396
100
AcDbEntity
  8
Bemaßungen_TC_020513_DIN_
  6
Continuous
 62
     7
100
AcDbLine
 10
297.13035050529
 20
180.57864089414
 30
0.0
 11
297.13035050529
 21
134.5786617653562
 31
0.0
  0
SOLID
  5
39A
330
396
100
AcDbEntity
  8
Bemaßungen_TC_020513_DIN_
 62
     7
100
AcDbTrace
 10
208.63035050529
 20
139.2369242532932
 30
0.0
 11
208.63035050529
 21
137.9203992774192
 31
0.0
 12
203.63035050529
 22
138.5786617653562
 32
0.0
 13
203.63035050529
 23
138.5786617653562
 33
0.0
  0
SOLID
  5
39B
330
396
100
AcDbEntity
  8
Bemaßungen_TC_020513_DIN_
 62
     7
100
AcDbTrace
 10
292.13035050529
 20
137.9203992774192
 30
0.0
 11
292.13035050529
 21
139.2369242532932
 31
0.0
 12
297.13035050529
 22
138.5786617653562
 32
0.0
 13
297.13035050529
 23
138.5786617653562
 33
0.0
  0
MTEXT
  5
39C
330
396
100
AcDbEntity
  8
Bemaßungen_TC_020513_DIN_
 62
     7
100
AcDbMText
 10
247.5276888289952
 20
146.2064258268323
 30
0.0
 40
7.0
 41
0.0
 71
     7
 72
     1
  1
93,5
  7
CONVERTER_15
 11
0.9999999999882478
 21
4.848136811095759E-6
 31
0.0
 73
     1
 44
0.60024009603842
  0
ENDBLK
  5
39E
330
396
100
AcDbEntity
  8
0
100
AcDbBlockEnd
  0
BLOCK
  5
3A8
330
3A1
100
AcDbEntity
  8
0
100
AcDbBlockBegin
  2
*D10
 70
     1
 10
0.0
 20
0.0
 30
0.0
  3
*D10
  1

  0
LINE
  5
3A2
330
3A1
100
AcDbEntity
  8
Bemaßungen_TC_020513_DIN_
  6
Continuous
 62
     7
100
AcDbLine
 10
209.38035050529
 20
157.5786513297411
 30
0.0
 11
291.38035050529
 21
157.5786513297411
 31
0.0
  0
LINE
  5
3A3
330
3A1
100
AcDbEntity
  8
Bemaßungen_TC_020513_DIN_
  6
Continuous
 62
     7
100
AcDbLine
 10
209.38035050529
 20
175.57864089414
 30
0.0
 11
209.38035050529
 21
153.5786513297411
 31
0.0
  0
LINE
  5
3A4
330
3A1
100
AcDbEntity
  8
Bemaßungen_TC_020513_DIN_
  6
Continuous
 62
     7
100
AcDbLine
 10
291.38035050529
 20
175.57864089414
 30
0.0
 11
291.38035050529
 21
153.5786513297411
 31
0.0
  0
SOLID
  5
3A5
330
3A1
100
AcDbEntity
  8
Bemaßungen_TC_020513_DIN_
 62
     7
100
AcDbTrace
 10
214.38035050529
 20
158.2369138176781
 30
0.0
 11
214.38035050529
 21
156.9203888418041
 31
0.0
 12
209.38035050529
 22
157.5786513297411
 32
0.0
 13
209.38035050529
 23
157.5786513297411
 33
0.0
  0
SOLID
  5
3A6
330
3A1
100
AcDbEntity
  8
Bemaßungen_TC_020513_DIN_
 62
     7
100
AcDbTrace
 10
286.38035050529
 20
156.9203888418041
 30
0.0
 11
286.38035050529
 21
158.2369138176781
 31
0.0
 12
291.38035050529
 22
157.5786513297411
 32
0.0
 13
291.38035050529
 23
157.5786513297411
 33
0.0
  0
MTEXT
  5
3A7
330
3A1
100
AcDbEntity
  8
Bemaßungen_TC_020513_DIN_
 62
     7
100
AcDbMText
 10
248.2560848201671
 20
162.8963074781875
 30
0.0
 40
7.0
 41
0.0
 71
     7
 72
     1
  1
82
  7
CONVERTER_15
 11
0.9999999999882478
 21
4.848136811095759E-6
 31
0.0
 73
     1
 44
0.60024009603842
  0
ENDBLK
  5
3A9
330
3A1
100
AcDbEntity
  8
0
100
AcDbBlockEnd
  0
BLOCK
  5
3B3
330
3AC
100
AcDbEntity
  8
0
100
AcDbBlockBegin
  2
*D11
 70
     1
 10
0.0
 20
0.0
 30
0.0
  3
*D11
  1

  0
LINE
  5
3AD
330
3AC
100
AcDbEntity
  8
Bemaßungen_TC_020513_DIN_
  6
Continuous
 62
     7
100
AcDbLine
 10
328.6303505052897
 20
187.07864089414
 30
0.0
 11
328.6303505052897
 21
207.07864089414
 31
0.0
  0
LINE
  5
3AE
330
3AC
100
AcDbEntity
  8
Bemaßungen_TC_020513_DIN_
  6
Continuous
 62
     7
100
AcDbLine
 10
298.63035050529
 20
187.07864089414
 30
0.0
 11
332.6303505052897
 21
187.07864089414
 31
0.0
  0
LINE
  5
3AF
330
3AC
100
AcDbEntity
  8
Bemaßungen_TC_020513_DIN_
  6
Continuous
 62
     7
100
AcDbLine
 10
293.313363207182
 20
207.07864089414
 30
0.0
 11
332.6303505052897
 21
207.07864089414
 31
0.0
  0
SOLID
  5
3B0
330
3AC
100
AcDbEntity
  8
Bemaßungen_TC_020513_DIN_
 62
     7
100
AcDbTrace
 10
327.9720880173527
 20
192.07864089414
 30
0.0
 11
329.2886129932266
 21
192.07864089414
 31
0.0
 12
328.6303505052897
 22
187.07864089414
 32
0.0
 13
328.6303505052897
 23
187.07864089414
 33
0.0
  0
SOLID
  5
3B1
330
3AC
100
AcDbEntity
  8
Bemaßungen_TC_020513_DIN_
 62
     7
100
AcDbTrace
 10
329.2886129932266
 20
202.07864089414
 30
0.0
 11
327.9720880173527
 21
202.07864089414
 31
0.0
 12
328.6303505052897
 22
207.07864089414
 32
0.0
 13
328.6303505052897
 23
207.07864089414
 33
0.0
  0
MTEXT
  5
3B2
330
3AC
100
AcDbEntity
  8
Bemaßungen_TC_020513_DIN_
 62
     7
100
AcDbMText
 10
323.3126769358925
 20
191.6172402574863
 30
0.0
 40
7.0
 41
0.0
 71
     7
 72
     1
  1
M20
  7
CONVERTER_15
 11
0.0
 21
1.0
 31
0.0
 73
     1
 44
0.60024009603842
  0
ENDBLK
  5
3B4
330
3AC
100
AcDbEntity
  8
0
100
AcDbBlockEnd
  0
ENDSEC
  0
SECTION
  2
ENTITIES
  0
INSERT
  5
51
330
1F
100
AcDbEntity
  8
0
100
AcDbBlockReference
  2
Schriftfelder_Ilme
 10
174.039620099394
 20
-0.0012801852525
 30
0.0
 41
2.0
 42
2.0
 43
2.0
  0
INSERT
  5
52
330
1F
100
AcDbEntity
  8
0
100
AcDbBlockReference
  2
Ränder_Ilme_Rahmen_A4_quer
 10
0.0
 20
0.0
 30
0.0
 41
2.0
 42
2.0
 43
2.0
  0
POINT
  5
FE
330
1F
100
AcDbEntity
  8
Bemaßungen_TC_020513_DIN_
 62
     7
100
AcDbPoint
 10
204.13035050529
 20
187.07864089414
 30
0.0
  0
POINT
  5
FF
330
1F
100
AcDbEntity
  8
Bemaßungen_TC_020513_DIN_
 62
     7
100
AcDbPoint
 10
204.13035050529
 20
207.07864089414
 30
0.0
  0
POINT
  5
100
330
1F
100
AcDbEntity
  8
Bemaßungen_TC_020513_DIN_
 62
     7
100
AcDbPoint
 10
408.156223142551
 20
291.32864089414
 30
0.0
  0
POINT
  5
101
330
1F
100
AcDbEntity
  8
Bemaßungen_TC_020513_DIN_
 62
     7
100
AcDbPoint
 10
483.156223142557
 20
232.32864089414
 30
0.0
  0
POINT
  5
102
330
1F
100
AcDbEntity
  8
Bemaßungen_TC_020513_DIN_
 62
     7
100
AcDbPoint
 10
426.406223142548
 20
184.57864089414
 30
0.0
  0
POINT
  5
103
330
1F
100
AcDbEntity
  8
Bemaßungen_TC_020513_DIN_
 62
     7
100
AcDbPoint
 10
483.406223142548
 20
182.57864089414
 30
0.0
  0
POINT
  5
104
330
1F
100
AcDbEntity
  8
Bemaßungen_TC_020513_DIN_
 62
     7
100
AcDbPoint
 10
477.406223142549
 20
177.57864089414
 30
0.0
  0
POINT
  5
105
330
1F
100
AcDbEntity
  8
Bemaßungen_TC_020513_DIN_
 62
     7
100
AcDbPoint
 10
432.406223142549
 20
177.57864089414
 30
0.0
  0
POINT
  5
106
330
1F
100
AcDbEntity
  8
Bemaßungen_TC_020513_DIN_
 62
     7
100
AcDbPoint
 10
470.906223142551
 20
239.57864089414
 30
0.0
  0
POINT
  5
107
330
1F
100
AcDbEntity
  8
Bemaßungen_TC_020513_DIN_
 62
     7
100
AcDbPoint
 10
482.406223142547
 20
182.57864089414
 30
0.0
  0
POINT
  5
108
330
1F
100
AcDbEntity
  8
Bemaßungen_TC_020513_DIN_
 62
     7
100
AcDbPoint
 10
482.406223142547
 20
186.57864089414
 30
0.0
  0
POINT
  5
109
330
1F
100
AcDbEntity
  8
Bemaßungen_TC_020513_DIN_
 62
     7
100
AcDbPoint
 10
482.406223142547
 20
182.57864089414
 30
0.0
  0
POINT
  5
10A
330
1F
100
AcDbEntity
  8
Bemaßungen_TC_020513_DIN_
 62
     7
100
AcDbPoint
 10
203.63035050529
 20
182.57864089414
 30
0.0
  0
POINT
  5
10B
330
1F
100
AcDbEntity
  8
Bemaßungen_TC_020513_DIN_
 62
     7
100
AcDbPoint
 10
297.13035050529
 20
182.57864089414
 30
0.0
  0
POINT
  5
10C
330
1F
100
AcDbEntity
  8
Bemaßungen_TC_020513_DIN_
 62
     7
100
AcDbPoint
 10
209.38035050529
 20
177.57864089414
 30
0.0
  0
POINT
  5
10D
330
1F
100
AcDbEntity
  8
Bemaßungen_TC_020513_DIN_
 62
     7
100
AcDbPoint
 10
291.38035050529
 20
177.57864089414
 30
0.0
  0
POINT
  5
10E
330
1F
100
AcDbEntity
  8
Bemaßungen_TC_020513_DIN_
 62
     7
100
AcDbPoint
 10
296.63035050529
 20
187.07864089414
 30
0.0
  0
POINT
  5
10F
330
1F
100
AcDbEntity
  8
Bemaßungen_TC_020513_DIN_
 62
     7
100
AcDbPoint
 10
291.313363207182
 20
207.07864089414
 30
0.0
  0
POINT
  5
110
330
1F
100
AcDbEntity
  8
Bemaßungen_TC_020513_DIN_
 62
     7
100
AcDbPoint
 10
204.13035050529
 20
187.07864089414
 30
0.0
  0
POINT
  5
111
330
1F
100
AcDbEntity
  8
Bemaßungen_TC_020513_DIN_
 62
     7
100
AcDbPoint
 10
204.13035050529
 20
207.07864089414
 30
0.0
  0
POINT
  5
112
330
1F
100
AcDbEntity
  8
Bemaßungen_TC_020513_DIN_
 62
     7
100
AcDbPoint
 10
408.156223142551
 20
291.32864089414
 30
0.0
  0
POINT
  5
113
330
1F
100
AcDbEntity
  8
Bemaßungen_TC_020513_DIN_
 62
     7
100
AcDbPoint
 10
483.156223142557
 20
232.32864089414
 30
0.0
  0
POINT
  5
114
330
1F
100
AcDbEntity
  8
Bemaßungen_TC_020513_DIN_
 62
     7
100
AcDbPoint
 10
426.406223142548
 20
184.57864089414
 30
0.0
  0
POINT
  5
115
330
1F
100
AcDbEntity
  8
Bemaßungen_TC_020513_DIN_
 62
     7
100
AcDbPoint
 10
483.406223142548
 20
182.57864089414
 30
0.0
  0
POINT
  5
116
330
1F
100
AcDbEntity
  8
Bemaßungen_TC_020513_DIN_
 62
     7
100
AcDbPoint
 10
477.406223142549
 20
177.57864089414
 30
0.0
  0
POINT
  5
117
330
1F
100
AcDbEntity
  8
Bemaßungen_TC_020513_DIN_
 62
     7
100
AcDbPoint
 10
432.406223142549
 20
177.57864089414
 30
0.0
  0
POINT
  5
118
330
1F
100
AcDbEntity
  8
Bemaßungen_TC_020513_DIN_
 62
     7
100
AcDbPoint
 10
470.906223142551
 20
239.57864089414
 30
0.0
  0
POINT
  5
119
330
1F
100
AcDbEntity
  8
Bemaßungen_TC_020513_DIN_
 62
     7
100
AcDbPoint
 10
482.406223142547
 20
182.57864089414
 30
0.0
  0
POINT
  5
11A
330
1F
100
AcDbEntity
  8
Bemaßungen_TC_020513_DIN_
 62
     7
100
AcDbPoint
 10
482.406223142547
 20
186.57864089414
 30
0.0
  0
POINT
  5
11B
330
1F
100
AcDbEntity
  8
Bemaßungen_TC_020513_DIN_
 62
     7
100
AcDbPoint
 10
482.406223142547
 20
182.57864089414
 30
0.0
  0
POINT
  5
11C
330
1F
100
AcDbEntity
  8
Bemaßungen_TC_020513_DIN_
 62
     7
100
AcDbPoint
 10
203.63035050529
 20
182.57864089414
 30
0.0
  0
POINT
  5
11D
330
1F
100
AcDbEntity
  8
Bemaßungen_TC_020513_DIN_
 62
     7
100
AcDbPoint
 10
297.13035050529
 20
182.57864089414
 30
0.0
  0
POINT
  5
11E
330
1F
100
AcDbEntity
  8
Bemaßungen_TC_020513_DIN_
 62
     7
100
AcDbPoint
 10
209.38035050529
 20
177.57864089414
 30
0.0
  0
POINT
  5
11F
330
1F
100
AcDbEntity
  8
Bemaßungen_TC_020513_DIN_
 62
     7
100
AcDbPoint
 10
291.38035050529
 20
177.57864089414
 30
0.0
  0
POINT
  5
120
330
1F
100
AcDbEntity
  8
Bemaßungen_TC_020513_DIN_
 62
     7
100
AcDbPoint
 10
296.63035050529
 20
187.07864089414
 30
0.0
  0
POINT
  5
121
330
1F
100
AcDbEntity
  8
Bemaßungen_TC_020513_DIN_
 62
     7
100
AcDbPoint
 10
291.313363207182
 20
207.07864089414
 30
0.0
  0
LINE
  5
203
102
{ACAD_REACTORS
330
3B7
330
3B7
102
}
330
1F
100
AcDbEntity
  8
Symbole_TC_020513_DIN_
  6
Continuous
 62
     7
100
AcDbLine
 10
480.711218021246
 20
190.387882072487
 30
0.0
 11
479.61269888729
 21
191.113480945442
 31
0.0
  0
LINE
  5
204
102
{ACAD_REACTORS
330
3B7
330
3B7
102
}
330
1F
100
AcDbEntity
  8
Symbole_TC_020513_DIN_
  6
Continuous
 62
     7
100
AcDbLine
 10
479.61269888729
 20
191.113480945442
 30
0.0
 11
477.406223142549
 21
186.57864089414
 31
0.0
  0
LINE
  5
205
102
{ACAD_REACTORS
330
3B7
330
3B7
102
}
330
1F
100
AcDbEntity
  8
Symbole_TC_020513_DIN_
  6
Continuous
 62
     7
100
AcDbLine
 10
477.406223142549
 20
186.57864089414
 30
0.0
 11
480.711218021246
 21
190.387882072487
 31
0.0
  0
SPLINE
  5
239
330
1F
100
AcDbEntity
  8
Sichtbare_Kanten_TC_020513_DIN_
  6
Continuous
 62
     7
100
AcDbSpline
210
0.0
220
0.0
230
1.0
 70
     8
 71
     3
 72
    31
 73
    27
 74
    25
 42
0.0000000001
 43
0.0000000001
 44
0.00000001
 40
0.0
 40
0.0
 40
0.0
 40
0.0
 40
0.1213199263209845
 40
0.2426398528936315
 40
0.2730344327914421
 40
0.3034237123954966
 40
0.3338153181340455
 40
0.3642082196096189
 40
0.3946276396440108
 40
0.4250468318232554
 40
0.4554660502070244
 40
0.4858852236021916
 40
0.5163353239214516
 40
0.5467855479817552
 40
0.5772357937678657
 40
0.607685927118219
 40
0.638166868000874
 40
0.6686478631058044
 40
0.6991288658906856
 40
0.7296101001492566
 40
0.7601190939252248
 40
0.790626832919093
 40
0.8211323177579324
 40
0.8516429695137968
 40
0.9736340399419956
 40
1.095625110606797
 40
1.095625110606797
 40
1.095625110606797
 40
1.095625110606797
 10
256.38035050529
 20
242.655584738671
 30
0.0
 10
256.3783072539074
 20
242.6960714711111
 30
0.0
 10
256.3742207511379
 20
242.777044936075
 30
0.0
 10
256.3493287959076
 20
242.8654267840895
 30
0.0
 10
256.3272757805647
 20
242.9219646226714
 30
0.0
 10
256.3149588866483
 20
242.9497647808446
 30
0.0
 10
256.3014503916
 20
242.9769980583248
 30
0.0
 10
256.2867559727262
 20
243.0036237936176
 30
0.0
 10
256.2709041952874
 20
243.0295873332784
 30
0.0
 10
256.2539275440288
 20
243.0548403719824
 30
0.0
 10
256.2358652564148
 20
243.0793284938086
 30
0.0
 10
256.2167447326034
 20
243.1030128884645
 30
0.0
 10
256.1965989369382
 20
243.1258453611426
 30
0.0
 10
256.1754688919277
 20
243.1477844281028
 30
0.0
 10
256.153403290584
 20
243.1687822976818
 30
0.0
 10
256.1304360868587
 20
243.1888056640438
 30
0.0
 10
256.1066081617946
 20
243.2078131153305
 30
0.0
 10
256.081967011491
 20
243.2257711001522
 30
0.0
 10
256.056568608337
 20
243.2426413186727
 30
0.0
 10
256.0304528222902
 20
243.2583960608942
 30
0.0
 10
256.0036672535209
 20
243.2730027292353
 30
0.0
 10
255.9762656353847
 20
243.2864322793328
 30
0.0
 10
255.9483048726261
 20
243.2986720801131
 30
0.0
 10
255.8913971879859
 20
243.3206053561921
 30
0.0
 10
255.8024791233845
 20
243.3453380984081
 30
0.0
 10
255.7210600446812
 20
243.3493954830861
 30
0.0
 10
255.68035050529
 20
243.351424175427
 30
0.0
 11
256.38035050529
 21
242.655584738671
 31
0.0
 11
256.3697121399671
 21
242.7764373336195
 31
0.0
 11
256.3381353398399
 21
242.8935758425622
 31
0.0
 11
256.3270625306156
 21
242.9218817321092
 31
0.0
 11
256.3147605834678
 21
242.949669686536
 31
0.0
 11
256.301253740931
 21
242.9768949487763
 31
0.0
 11
256.286568287939
 21
243.0035044570491
 31
0.0
 11
256.2707174372571
 21
243.029467732033
 31
0.0
 11
256.2537466019567
 21
243.0547128900251
 31
0.0
 11
256.2356899535045
 21
243.0791932146503
 31
0.0
 11
256.2165816154726
 21
243.1028617069492
 31
0.0
 11
256.1964360659587
 21
243.1256951351683
 31
0.0
 11
256.1753129721087
 21
243.1476275552702
 31
0.0
 11
256.1532542825632
 21
243.1686187840091
 31
0.0
 11
256.1303018320706
 21
243.1886286725005
 31
0.0
 11
256.106473979775
 21
243.2076371235703
 31
0.0
 11
256.0818408182847
 21
243.2255897951703
 31
0.0
 11
256.0564504418601
 21
243.2424545606828
 31
0.0
 11
256.0303505052897
 21
243.2581993678567
 31
0.0
 11
256.0035653871312
 21
243.2728060836567
 31
0.0
 11
255.9761718496865
 21
243.2862342720967
 31
0.0
 11
255.948223234371
 21
243.2984596353714
 31
0.0
 11
255.9197646056175
 21
243.3094599226422
 31
0.0
 11
255.8018829962249
 21
243.3408565376066
 31
0.0
 11
255.68035050529
 21
243.351424175427
 31
0.0
  0
SPLINE
  5
23A
330
1F
100
AcDbEntity
  8
Sichtbare_Kanten_TC_020513_DIN_
  6
Continuous
 62
     7
100
AcDbSpline
210
0.0
220
0.0
230
1.0
 70
     8
 71
     3
 72
    31
 73
    27
 74
    25
 42
0.0000000001
 43
0.0000000001
 44
0.00000001
 40
0.0
 40
0.0
 40
0.0
 40
0.0
 40
0.1219910706653907
 40
0.2439821410936243
 40
0.2744927928495923
 40
0.304998277688435
 40
0.3355060166824668
 40
0.3660150104586118
 40
0.396496244717159
 40
0.4269772475019141
 40
0.4574582426065751
 40
0.4879391834888925
 40
0.5183893168392535
 40
0.5488395626255267
 40
0.5792897866860872
 40
0.6097398870054926
 40
0.6401590604007849
 40
0.6705782787845539
 40
0.7009974709638062
 40
0.7314168909981886
 40
0.7618097924737732
 40
0.7922013982122968
 40
0.8225906778163108
 40
0.8529852577141479
 40
0.97430518428678
 40
1.095625110607685
 40
1.095625110607685
 40
1.095625110607685
 40
1.095625110607685
 10
245.08035050529
 20
243.351424175427
 30
0.0
 10
245.0396409658986
 20
243.3493954830861
 30
0.0
 10
244.958221887195
 20
243.3453380984082
 30
0.0
 10
244.8693038225935
 20
243.3206053561921
 30
0.0
 10
244.812396137953
 20
243.2986720801139
 30
0.0
 10
244.7844353751942
 20
243.2864322793336
 30
0.0
 10
244.7570337570581
 20
243.2730027292357
 30
0.0
 10
244.7302481882887
 20
243.2583960608943
 30
0.0
 10
244.7041324022421
 20
243.2426413186727
 30
0.0
 10
244.6787339990883
 20
243.2257711001523
 30
0.0
 10
244.654092848785
 20
243.2078131153305
 30
0.0
 10
244.6302649237211
 20
243.1888056640439
 30
0.0
 10
244.6072977199959
 20
243.1687822976819
 30
0.0
 10
244.5852321186522
 20
243.1477844281027
 30
0.0
 10
244.5641020736413
 20
243.1258453611425
 30
0.0
 10
244.5439562779757
 20
243.1030128884645
 30
0.0
 10
244.5248357541641
 20
243.0793284938087
 30
0.0
 10
244.5067734665502
 20
243.0548403719824
 30
0.0
 10
244.4897968152916
 20
243.0295873332784
 30
0.0
 10
244.4739450378527
 20
243.0036237936176
 30
0.0
 10
244.459250618979
 20
242.9769980583249
 30
0.0
 10
244.4457421239309
 20
242.9497647808445
 30
0.0
 10
244.4334252300143
 20
242.9219646226715
 30
0.0
 10
244.4113722146716
 20
242.8654267840893
 30
0.0
 10
244.386480259441
 20
242.7770449360752
 30
0.0
 10
244.3823937566723
 20
242.6960714711111
 30
0.0
 10
244.38035050529
 20
242.655584738671
 30
0.0
 11
245.08035050529
 21
243.351424175427
 31
0.0
 11
244.9588180143545
 21
243.3408565376066
 31
0.0
 11
244.8409364049617
 21
243.3094599226427
 31
0.0
 11
244.8124777762081
 21
243.2984596353721
 31
0.0
 11
244.7845291608925
 21
243.2862342720975
 31
0.0
 11
244.7571356234477
 21
243.2728060836571
 31
0.0
 11
244.7303505052893
 21
243.2581993678568
 31
0.0
 11
244.7042505687189
 21
243.2424545606828
 31
0.0
 11
244.6788601922945
 21
243.2255897951703
 31
0.0
 11
244.6542270308045
 21
243.2076371235704
 31
0.0
 11
244.6303991785093
 21
243.1886286725007
 31
0.0
 11
244.6074467280167
 21
243.1686187840092
 31
0.0
 11
244.5853880384711
 21
243.1476275552702
 31
0.0
 11
244.5642649446207
 21
243.1256951351682
 31
0.0
 11
244.5441193951065
 21
243.1028617069492
 31
0.0
 11
244.5250110570745
 21
243.0791932146503
 31
0.0
 11
244.5069544086223
 21
243.0547128900251
 31
0.0
 11
244.4899835733219
 21
243.029467732033
 31
0.0
 11
244.47413272264
 21
243.0035044570491
 31
0.0
 11
244.459447269648
 21
242.9768949487763
 31
0.0
 11
244.4459404271113
 21
242.9496696865359
 31
0.0
 11
244.4336384799634
 21
242.9218817321092
 31
0.0
 11
244.4225656707391
 21
242.8935758425622
 31
0.0
 11
244.3909888706119
 21
242.7764373336195
 31
0.0
 11
244.38035050529
 21
242.655584738671
 31
0.0
  0
SPLINE
  5
23B
330
1F
100
AcDbEntity
  8
Sichtbare_Kanten_TC_020513_DIN_
  6
Continuous
 62
     7
100
AcDbSpline
210
0.0
220
0.0
230
1.0
 70
     8
 71
     3
 72
    31
 73
    27
 74
    25
 42
0.0000000001
 43
0.0000000001
 44
0.00000001
 40
0.0
 40
0.0
 40
0.0
 40
0.0
 40
0.1213199263209612
 40
0.2426398528936483
 40
0.2730344327914589
 40
0.3034237123955333
 40
0.3338153181340062
 40
0.3642082196095496
 40
0.3946276396437098
 40
0.4250468318227324
 40
0.4554660502064339
 40
0.4858852236016283
 40
0.5163353239211352
 40
0.5467855479816154
 40
0.5772357937679906
 40
0.6076859271184615
 40
0.6381668680010277
 40
0.6686478631059581
 40
0.6991288658908236
 40
0.7296101001494094
 40
0.760119093925314
 40
0.7906268329192843
 40
0.8211323177581985
 40
0.8516429695143443
 40
0.9736340399424606
 40
1.095625110606865
 40
1.095625110606865
 40
1.095625110606865
 40
1.095625110606865
 10
256.38035050529
 20
242.710018176097
 30
0.0
 10
256.3783072539073
 20
242.750504908537
 30
0.0
 10
256.3742207511378
 20
242.8314783735011
 30
0.0
 10
256.3493287959075
 20
242.9198602215154
 30
0.0
 10
256.3272757805647
 20
242.9763980600974
 30
0.0
 10
256.3149588866481
 20
243.0041982182706
 30
0.0
 10
256.3014503916001
 20
243.0314314957508
 30
0.0
 10
256.2867559727263
 20
243.0580572310435
 30
0.0
 10
256.2709041952879
 20
243.0840207707044
 30
0.0
 10
256.2539275440298
 20
243.1092738094085
 30
0.0
 10
256.2358652564158
 20
243.1337619312346
 30
0.0
 10
256.2167447326044
 20
243.1574463258905
 30
0.0
 10
256.1965989369388
 20
243.1802787985685
 30
0.0
 10
256.1754688919279
 20
243.2022178655288
 30
0.0
 10
256.153403290584
 20
243.2232157351078
 30
0.0
 10
256.1304360868586
 20
243.2432391014698
 30
0.0
 10
256.1066081617945
 20
243.2622465527564
 30
0.0
 10
256.081967011491
 20
243.2802045375782
 30
0.0
 10
256.056568608337
 20
243.2970747560987
 30
0.0
 10
256.0304528222902
 20
243.3128294983203
 30
0.0
 10
256.0036672535208
 20
243.3274361666612
 30
0.0
 10
255.9762656353846
 20
243.3408657167587
 30
0.0
 10
255.9483048726258
 20
243.3531055175393
 30
0.0
 10
255.8913971879855
 20
243.3750387936178
 30
0.0
 10
255.8024791233843
 20
243.3997715358342
 30
0.0
 10
255.7210600446811
 20
243.4038289205121
 30
0.0
 10
255.68035050529
 20
243.405857612853
 30
0.0
 11
256.38035050529
 21
242.710018176097
 31
0.0
 11
256.3697121399671
 21
242.8308707710455
 31
0.0
 11
256.3381353398399
 21
242.9480092799882
 31
0.0
 11
256.3270625306156
 21
242.9763151695352
 31
0.0
 11
256.3147605834677
 21
243.004103123962
 31
0.0
 11
256.301253740931
 21
243.0313283862023
 31
0.0
 11
256.2865682879391
 21
243.0579378944751
 31
0.0
 11
256.2707174372576
 21
243.083901169459
 31
0.0
 11
256.2537466019576
 21
243.1091463274511
 31
0.0
 11
256.2356899535055
 21
243.1336266520763
 31
0.0
 11
256.2165816154736
 21
243.1572951443752
 31
0.0
 11
256.1964360659593
 21
243.1801285725942
 31
0.0
 11
256.175312972109
 21
243.2020609926961
 31
0.0
 11
256.1532542825632
 21
243.2230522214352
 31
0.0
 11
256.1303018320705
 21
243.2430621099266
 31
0.0
 11
256.106473979775
 21
243.2620705609963
 31
0.0
 11
256.0818408182846
 21
243.2800232325962
 31
0.0
 11
256.0564504418601
 21
243.2968879981088
 31
0.0
 11
256.0303505052896
 21
243.3126328052827
 31
0.0
 11
256.0035653871312
 21
243.3272395210826
 31
0.0
 11
255.9761718496864
 21
243.3406677095227
 31
0.0
 11
255.9482232343708
 21
243.3528930727974
 31
0.0
 11
255.919764605617
 21
243.3638933600682
 31
0.0
 11
255.8018829962245
 21
243.3952899750326
 31
0.0
 11
255.68035050529
 21
243.405857612853
 31
0.0
  0
SPLINE
  5
23C
330
1F
100
AcDbEntity
  8
Sichtbare_Kanten_TC_020513_DIN_
  6
Continuous
 62
     7
100
AcDbSpline
210
0.0
220
0.0
230
1.0
 70
     8
 71
     3
 72
    31
 73
    27
 74
    25
 42
0.0000000001
 43
0.0000000001
 44
0.00000001
 40
0.0
 40
0.0
 40
0.0
 40
0.0
 40
0.1219910706649376
 40
0.2439821410936254
 40
0.2744927928495994
 40
0.3049982776884388
 40
0.3355060166825092
 40
0.3660150104585657
 40
0.3964962447171372
 40
0.4269772475019633
 40
0.4574582426065554
 40
0.4879391834888728
 40
0.5183893168391536
 40
0.5488395626254464
 40
0.5792897866859865
 40
0.6097398870055787
 40
0.6401590604011141
 40
0.6705782787851288
 40
0.7009974709642871
 40
0.7314168909983974
 40
0.7618097924737554
 40
0.7922013982123297
 40
0.8225906778162542
 40
0.8529852577139383
 40
0.9743051842866179
 40
1.095625110607584
 40
1.095625110607584
 40
1.095625110607584
 40
1.095625110607584
 10
245.08035050529
 20
243.405857612853
 30
0.0
 10
245.0396409658988
 20
243.4038289205121
 30
0.0
 10
244.9582218871952
 20
243.3997715358342
 30
0.0
 10
244.8693038225937
 20
243.375038793618
 30
0.0
 10
244.8123961379529
 20
243.35310551754
 30
0.0
 10
244.7844353751943
 20
243.3408657167595
 30
0.0
 10
244.757033757058
 20
243.3274361666617
 30
0.0
 10
244.7302481882888
 20
243.3128294983204
 30
0.0
 10
244.704132402242
 20
243.2970747560986
 30
0.0
 10
244.6787339990882
 20
243.2802045375784
 30
0.0
 10
244.6540928487848
 20
243.2622465527564
 30
0.0
 10
244.6302649237212
 20
243.2432391014699
 30
0.0
 10
244.6072977199959
 20
243.2232157351079
 30
0.0
 10
244.5852321186523
 20
243.2022178655287
 30
0.0
 10
244.5641020736413
 20
243.1802787985686
 30
0.0
 10
244.5439562779756
 20
243.1574463258903
 30
0.0
 10
244.5248357541641
 20
243.1337619312342
 30
0.0
 10
244.5067734665503
 20
243.1092738094076
 30
0.0
 10
244.4897968152915
 20
243.0840207707038
 30
0.0
 10
244.4739450378527
 20
243.0580572310433
 30
0.0
 10
244.4592506189788
 20
243.0314314957506
 30
0.0
 10
244.4457421239308
 20
243.0041982182705
 30
0.0
 10
244.4334252300143
 20
242.9763980600974
 30
0.0
 10
244.4113722146716
 20
242.9198602215155
 30
0.0
 10
244.3864802594411
 20
242.8314783735012
 30
0.0
 10
244.3823937566723
 20
242.750504908537
 30
0.0
 10
244.38035050529
 20
242.710018176097
 30
0.0
 11
245.08035050529
 21
243.405857612853
 31
0.0
 11
244.958818014355
 21
243.3952899750326
 31
0.0
 11
244.8409364049617
 21
243.3638933600686
 31
0.0
 11
244.8124777762081
 21
243.3528930727981
 31
0.0
 11
244.7845291608925
 21
243.3406677095234
 31
0.0
 11
244.7571356234477
 21
243.3272395210831
 31
0.0
 11
244.7303505052893
 21
243.3126328052828
 31
0.0
 11
244.7042505687189
 21
243.2968879981088
 31
0.0
 11
244.6788601922945
 21
243.2800232325963
 31
0.0
 11
244.6542270308045
 21
243.2620705609964
 31
0.0
 11
244.6303991785093
 21
243.2430621099267
 31
0.0
 11
244.6074467280168
 21
243.2230522214352
 31
0.0
 11
244.5853880384711
 21
243.2020609926962
 31
0.0
 11
244.5642649446208
 21
243.1801285725943
 31
0.0
 11
244.5441193951065
 21
243.1572951443751
 31
0.0
 11
244.5250110570745
 21
243.1336266520758
 31
0.0
 11
244.5069544086223
 21
243.1091463274503
 31
0.0
 11
244.4899835733218
 21
243.0839011694584
 31
0.0
 11
244.47413272264
 21
243.0579378944748
 31
0.0
 11
244.459447269648
 21
243.0313283862022
 31
0.0
 11
244.4459404271112
 21
243.0041031239618
 31
0.0
 11
244.4336384799633
 21
242.9763151695352
 31
0.0
 11
244.4225656707391
 21
242.9480092799883
 31
0.0
 11
244.390988870612
 21
242.8308707710456
 31
0.0
 11
244.38035050529
 21
242.710018176097
 31
0.0
  0
LWPOLYLINE
  5
23D
330
1F
100
AcDbEntity
  8
Mittelpunktmarkierung_TC_020513_DIN_
  6
CHAIN
 62
     7
100
AcDbPolyline
 90
        2
 70
     0
 43
0.25
 10
263.13035050529
 20
239.07864089414
 10
263.13035050529
 20
221.07864089414
  0
LWPOLYLINE
  5
23E
330
1F
100
AcDbEntity
  8
Mittelpunktmarkierung_TC_020513_DIN_
  6
CHAIN
 62
     7
100
AcDbPolyline
 90
        2
 70
     0
 43
0.25
 10
272.13035050529
 20
230.07864089414
 10
254.13035050529
 20
230.07864089414
  0
LWPOLYLINE
  5
23F
330
1F
100
AcDbEntity
  8
Mittelpunktmarkierung_TC_020513_DIN_
  6
CHAIN
 62
     7
100
AcDbPolyline
 90
        2
 70
     0
 43
0.25
 10
237.63035050529
 20
239.07864089414
 10
237.63035050529
 20
221.07864089414
  0
LWPOLYLINE
  5
240
330
1F
100
AcDbEntity
  8
Mittelpunktmarkierung_TC_020513_DIN_
  6
CHAIN
 62
     7
100
AcDbPolyline
 90
        2
 70
     0
 43
0.25
 10
246.63035050529
 20
230.07864089414
 10
228.63035050529
 20
230.07864089414
  0
LWPOLYLINE
  5
241
330
1F
100
AcDbEntity
  8
Mittellinie_TC_020513_DIN_
  6
CHAIN
 62
     7
100
AcDbPolyline
 90
        2
 70
     0
 43
0.25
 10
421.906223142557
 20
230.07864089414
 10
436.656223142557
 20
230.07864089414
  0
LWPOLYLINE
  5
242
330
1F
100
AcDbEntity
  8
Mittellinie_TC_020513_DIN_
  6
CHAIN
 62
     7
100
AcDbPolyline
 90
        2
 70
     0
 43
0.25
 10
473.156223142557
 20
230.07864089414
 10
487.906223142557
 20
230.07864089414
  0
LWPOLYLINE
  5
243
330
1F
100
AcDbEntity
  8
Mittelpunktmarkierung_TC_020513_DIN_
  6
CHAIN
 62
     7
100
AcDbPolyline
 90
        2
 70
     0
 43
0.25
 10
454.906223142547
 20
257.571115060012
 10
454.906223142547
 20
182.07864089414
  0
LWPOLYLINE
  5
244
330
1F
100
AcDbEntity
  8
Mittelpunktmarkierung_TC_020513_DIN_
  6
CHAIN
 62
     7
100
AcDbPolyline
 90
        2
 70
     0
 43
0.25
 10
469.906223142547
 20
197.07864089414
 10
439.906223142547
 20
197.07864089414
  0
LWPOLYLINE
  5
245
330
1F
100
AcDbEntity
  8
Mittellinie_TC_020513_DIN_
  6
CHAIN
 62
     7
100
AcDbPolyline
 90
        2
 70
     0
 43
0.25
 10
477.406223142549
 20
177.57864089414
 10
477.406223142549
 20
191.57864089414
  0
LWPOLYLINE
  5
246
330
1F
100
AcDbEntity
  8
Mittellinie_TC_020513_DIN_
  6
CHAIN
 62
     7
100
AcDbPolyline
 90
        2
 70
     0
 43
0.25
 10
432.406223142549
 20
177.57864089414
 10
432.406223142549
 20
191.57864089414
  0
LWPOLYLINE
  5
247
330
1F
100
AcDbEntity
  8
Mittellinie_TC_020513_DIN_
  6
CHAIN
 62
     7
100
AcDbPolyline
 90
        2
 70
     0
 43
0.25
 10
291.38035050529
 20
177.57864089414
 10
291.38035050529
 20
191.57864089414
  0
LWPOLYLINE
  5
248
330
1F
100
AcDbEntity
  8
Mittellinie_TC_020513_DIN_
  6
CHAIN
 62
     7
100
AcDbPolyline
 90
        2
 70
     0
 43
0.25
 10
209.38035050529
 20
177.57864089414
 10
209.38035050529
 20
191.57864089414
  0
LWPOLYLINE
  5
249
330
1F
100
AcDbEntity
  8
Mittellinie_TC_020513_DIN_
  6
CHAIN
 62
     7
100
AcDbPolyline
 90
        2
 70
     0
 43
0.25
 10
250.38035050529
 20
303.152175282902
 10
250.38035050529
 20
181.57864089414
  0
LWPOLYLINE
  5
24A
330
1F
100
AcDbEntity
  8
Sichtbare_Kanten_TC_020513_DIN_
  6
Continuous
 62
     7
100
AcDbPolyline
 90
        2
 70
     0
 43
0.5
 10
415.656223142557
 20
243.07864089414
 10
415.656223142557
 20
213.57864089414
  0
LWPOLYLINE
  5
24B
330
1F
100
AcDbEntity
  8
Sichtbare_Kanten_TC_020513_DIN_
  6
Continuous
 62
     7
100
AcDbPolyline
 90
        2
 70
     0
 43
0.5
 10
416.656223142557
 20
212.57864089414
 10
431.156223142557
 20
212.57864089414
  0
LWPOLYLINE
  5
24C
330
1F
100
AcDbEntity
  8
Sichtbare_Kanten_TC_020513_DIN_
  6
Continuous
 62
     7
100
AcDbPolyline
 90
        2
 70
     0
 43
0.5
 10
431.156223142557
 20
213.07864089414
 10
431.156223142557
 20
212.57864089414
  0
LWPOLYLINE
  5
24D
330
1F
100
AcDbEntity
  8
Sichtbare_Kanten_TC_020513_DIN_
  6
Continuous
 62
     7
100
AcDbPolyline
 90
        2
 70
     0
 43
0.5
 10
424.606223142557
 20
244.07864089414
 10
416.656223142557
 20
244.07864089414
  0
LWPOLYLINE
  5
24E
330
1F
100
AcDbEntity
  8
Sichtbare_Kanten_TC_020513_DIN_
  6
Continuous
 62
     7
100
AcDbPolyline
 90
        2
 70
     0
 43
0.5
 10
424.606223142557
 20
244.07864089414
 10
424.701461237795
 20
243.57864089414
  0
LWPOLYLINE
  5
24F
330
1F
100
AcDbEntity
  8
Sichtbare_Kanten_TC_020513_DIN_
  6
Continuous
 62
     7
100
AcDbPolyline
 90
        2
 70
     0
 43
0.5
 10
424.701461237795
 20
243.57864089414
 10
426.60622314256
 20
233.57864089414
  0
LWPOLYLINE
  5
250
330
1F
100
AcDbEntity
  8
Sichtbare_Kanten_TC_020513_DIN_
  6
Continuous
 62
     7
100
AcDbPolyline
 90
        2
 70
     0
 43
0.5
 10
431.156223142557
 20
214.57864089414
 10
431.156223142557
 20
213.07864089414
  0
LWPOLYLINE
  5
251
330
1F
100
AcDbEntity
  8
Sichtbare_Kanten_TC_020513_DIN_
  6
Continuous
 62
     7
100
AcDbPolyline
 90
        2
 70
     0
 43
0.5
 10
426.606223142556
 20
214.57864089414
 10
426.60622314256
 20
233.57864089414
  0
LWPOLYLINE
  5
252
330
1F
100
AcDbEntity
  8
Sichtbare_Kanten_TC_020513_DIN_
  6
Continuous
 62
     7
100
AcDbPolyline
 90
        2
 70
     0
 43
0.5
 10
426.60622314256
 20
233.57864089414
 10
432.65622314256
 20
233.57864089414
  0
LWPOLYLINE
  5
253
330
1F
100
AcDbEntity
  8
Sichtbare_Kanten_TC_020513_DIN_
  6
Continuous
 62
     7
100
AcDbPolyline
 90
        2
 70
     0
 43
0.5
 10
426.606223142556
 20
214.57864089414
 10
431.156223142557
 20
214.57864089414
  0
LWPOLYLINE
  5
254
330
1F
100
AcDbEntity
  8
Sichtbare_Kanten_TC_020513_DIN_
  6
Continuous
 62
     7
100
AcDbPolyline
 90
        2
 70
     0
 43
0.5
 10
433.156223142558
 20
217.57864089414
 10
426.606223142558
 20
217.57864089414
  0
LWPOLYLINE
  5
255
330
1F
100
AcDbEntity
  8
Sichtbare_Kanten_TC_020513_DIN_
  6
Continuous
 62
     7
100
AcDbPolyline
 90
        2
 70
     0
 43
0.5
 10
433.156223142557
 20
214.57864089414
 10
431.156223142557
 20
214.57864089414
  0
LWPOLYLINE
  5
256
330
1F
100
AcDbEntity
  8
Sichtbare_Kanten_TC_020513_DIN_
  6
Continuous
 62
     7
100
AcDbPolyline
 90
        2
 70
     0
 43
0.5
 10
476.906223142552
 20
234.07864089414
 10
476.906223142552
 20
239.57864089414
  0
LWPOLYLINE
  5
257
330
1F
100
AcDbEntity
  8
Sichtbare_Kanten_TC_020513_DIN_
  6
Continuous
 62
     7
100
AcDbPolyline
 90
        2
 70
     0
 43
0.5
 10
470.906223142551
 20
234.07864089414
 10
476.906223142552
 20
234.07864089414
  0
LWPOLYLINE
  5
258
330
1F
100
AcDbEntity
  8
Sichtbare_Kanten_TC_020513_DIN_
  6
Continuous
 62
     7
100
AcDbPolyline
 90
        2
 70
     0
 43
0.5
 10
470.906223142551
 20
234.07864089414
 10
438.906223142551
 20
234.07864089414
  0
LWPOLYLINE
  5
259
330
1F
100
AcDbEntity
  8
Sichtbare_Kanten_TC_020513_DIN_
  6
Continuous
 62
     7
100
AcDbPolyline
 90
        2
 70
     0
 43
0.5
 10
432.906223142552
 20
234.07864089414
 10
438.906223142551
 20
234.07864089414
  0
LWPOLYLINE
  5
25A
330
1F
100
AcDbEntity
  8
Sichtbare_Kanten_TC_020513_DIN_
  6
Continuous
 62
     7
100
AcDbPolyline
 90
        2
 70
     0
 43
0.5
 10
432.906223142552
 20
234.07864089414
 10
432.906223142552
 20
239.57864089414
  0
LWPOLYLINE
  5
25B
330
1F
100
AcDbEntity
  8
Sichtbare_Kanten_TC_020513_DIN_
  6
Continuous
 62
     7
100
AcDbPolyline
 90
        2
 70
     0
 43
0.5
 10
470.906223142551
 20
239.57864089414
 10
476.906223142552
 20
239.57864089414
  0
LWPOLYLINE
  5
25C
330
1F
100
AcDbEntity
  8
Sichtbare_Kanten_TC_020513_DIN_
  6
Continuous
 62
     7
100
AcDbPolyline
 90
        2
 70
     0
 43
0.5
 10
470.906223142551
 20
239.57864089414
 10
438.906223142551
 20
239.57864089414
  0
LWPOLYLINE
  5
25D
330
1F
100
AcDbEntity
  8
Sichtbare_Kanten_TC_020513_DIN_
  6
Continuous
 62
     7
100
AcDbPolyline
 90
        2
 70
     0
 43
0.5
 10
432.906223142552
 20
239.57864089414
 10
438.906223142551
 20
239.57864089414
  0
LWPOLYLINE
  5
25E
330
1F
100
AcDbEntity
  8
Sichtbare_Kanten_TC_020513_DIN_
  6
Continuous
 62
     7
100
AcDbPolyline
 90
        2
 70
     0
 43
0.5
 10
417.656223142552
 20
251.32864089414
 10
415.156223142558
 20
251.328640894139
  0
LWPOLYLINE
  5
25F
330
1F
100
AcDbEntity
  8
Sichtbare_Kanten_TC_020513_DIN_
  6
Continuous
 62
     7
100
AcDbPolyline
 90
        2
 70
     0
 43
0.5
 10
415.156223142558
 20
251.328640894139
 10
415.156223142558
 20
242.878640894139
  0
LWPOLYLINE
  5
260
330
1F
100
AcDbEntity
  8
Sichtbare_Kanten_TC_020513_DIN_
  6
Continuous
 62
     7
100
AcDbPolyline
 90
        2
 70
     0
 43
0.5
 10
415.156223142558
 20
242.878640894139
 10
415.656223142558
 20
242.878640894139
  0
LWPOLYLINE
  5
261
330
1F
100
AcDbEntity
  8
Sichtbare_Kanten_TC_020513_DIN_
  6
Continuous
 62
     7
100
AcDbPolyline
 90
        2
 70
     0
 43
0.5
 10
415.656223142558
 20
235.07864089414
 10
413.551634305447
 20
235.07864089414
  0
LWPOLYLINE
  5
262
330
1F
100
AcDbEntity
  8
Sichtbare_Kanten_TC_020513_DIN_
  6
Continuous
 62
     7
100
AcDbPolyline
 90
        2
 70
     0
 43
0.5
 10
408.597866280308
 20
254.325036534751
 10
413.065094161702
 20
235.4634077022
  0
LWPOLYLINE
  5
263
330
1F
100
AcDbEntity
  8
Sichtbare_Kanten_TC_020513_DIN_
  6
Continuous
 62
     7
100
AcDbPolyline
 90
        2
 70
     0
 43
0.5
 10
421.656223142552
 20
297.32864089414
 10
421.656223142558
 20
300.32864089414
  0
LWPOLYLINE
  5
264
330
1F
100
AcDbEntity
  8
Sichtbare_Kanten_TC_020513_DIN_
  6
Continuous
 62
     7
100
AcDbPolyline
 90
        2
 70
     0
 43
0.5
 10
417.656223142558
 20
300.32864089414
 10
421.656223142558
 20
300.32864089414
  0
LWPOLYLINE
  5
265
330
1F
100
AcDbEntity
  8
Sichtbare_Kanten_TC_020513_DIN_
  6
Continuous
 62
     7
100
AcDbPolyline
 90
        2
 70
     0
 43
0.5
 10
417.656223142552
 20
251.32864089414
 10
421.656223142552
 20
251.32864089414
  0
LWPOLYLINE
  5
266
330
1F
100
AcDbEntity
  8
Sichtbare_Kanten_TC_020513_DIN_
  6
Continuous
 62
     7
100
AcDbPolyline
 90
        2
 70
     0
 43
0.5
 10
421.65622314255
 20
257.32864089414
 10
421.656223142552
 20
251.32864089414
  0
LWPOLYLINE
  5
267
330
1F
100
AcDbEntity
  8
Sichtbare_Kanten_TC_020513_DIN_
  6
Continuous
 62
     7
100
AcDbPolyline
 90
        2
 70
     0
 43
0.5
 10
421.656223142552
 20
297.32864089414
 10
421.65622314255
 20
291.32864089414
  0
LWPOLYLINE
  5
268
330
1F
100
AcDbEntity
  8
Sichtbare_Kanten_TC_020513_DIN_
  6
Continuous
 62
     7
100
AcDbPolyline
 90
        2
 70
     0
 43
0.5
 10
421.65622314255
 20
257.32864089414
 10
421.65622314255
 20
291.32864089414
  0
LWPOLYLINE
  5
269
330
1F
100
AcDbEntity
  8
Sichtbare_Kanten_TC_020513_DIN_
  6
Continuous
 62
     7
100
AcDbPolyline
 90
        2
 70
     0
 43
0.5
 10
417.656223142552
 20
297.32864089414
 10
421.656223142552
 20
297.32864089414
  0
LWPOLYLINE
  5
26A
330
1F
100
AcDbEntity
  8
Sichtbare_Kanten_TC_020513_DIN_
  6
Continuous
 62
     7
100
AcDbPolyline
 90
        2
 70
     0
 43
0.5
 10
417.656223142552
 20
297.32864089414
 10
417.656223142558
 20
300.32864089414
  0
LWPOLYLINE
  5
26B
330
1F
100
AcDbEntity
  8
Sichtbare_Kanten_TC_020513_DIN_
  6
Continuous
 62
     7
100
AcDbPolyline
 90
        2
 70
     0
 43
0.5
 10
417.656223142552
 20
297.32864089414
 10
417.65622314255
 20
291.32864089414
  0
LWPOLYLINE
  5
26C
330
1F
100
AcDbEntity
  8
Sichtbare_Kanten_TC_020513_DIN_
  6
Continuous
 62
     7
100
AcDbPolyline
 90
        2
 70
     0
 43
0.5
 10
417.656223142549
 20
278.571281581259
 10
417.65622314255
 20
291.32864089414
  0
LWPOLYLINE
  5
26D
330
1F
100
AcDbEntity
  8
Sichtbare_Kanten_TC_020513_DIN_
  6
Continuous
 62
     7
100
AcDbPolyline
 90
        2
 70
     0
 43
0.5
 10
417.65622314255
 20
257.32864089414
 10
417.656223142549
 20
270.08600020702
  0
LWPOLYLINE
  5
26E
330
1F
100
AcDbEntity
  8
Sichtbare_Kanten_TC_020513_DIN_
  6
Continuous
 62
     7
100
AcDbPolyline
 90
        2
 70
     0
 43
0.5
 10
417.65622314255
 20
257.32864089414
 10
417.656223142552
 20
251.32864089414
  0
LWPOLYLINE
  5
26F
330
1F
100
AcDbEntity
  8
Sichtbare_Kanten_TC_020513_DIN_
  6
Continuous
 62
     7
100
AcDbPolyline
 90
        2
 70
     0
 43
0.5
 10
417.656223142549
 20
270.08600020702
 10
417.656223142549
 20
278.571281581259
  0
LWPOLYLINE
  5
270
330
1F
100
AcDbEntity
  8
Sichtbare_Kanten_TC_020513_DIN_
  6
Continuous
 62
     7
100
AcDbPolyline
 90
        2
 70
     0
 43
0.5
 10
417.656223142552
 20
295.07864089414
 10
410.156223142552
 20
295.07864089414
  0
LWPOLYLINE
  5
271
330
1F
100
AcDbEntity
  8
Sichtbare_Kanten_TC_020513_DIN_
  6
Continuous
 62
     7
100
AcDbPolyline
 90
        2
 70
     0
 43
0.5
 10
417.656223142552
 20
253.57864089414
 10
410.156223142552
 20
253.57864089414
  0
LWPOLYLINE
  5
272
330
1F
100
AcDbEntity
  8
Sichtbare_Kanten_TC_020513_DIN_
  6
Continuous
 62
     7
100
AcDbPolyline
 90
        2
 70
     0
 43
0.5
 10
408.156223142552
 20
255.57864089414
 10
408.156223142551
 20
257.32864089414
  0
LWPOLYLINE
  5
273
330
1F
100
AcDbEntity
  8
Sichtbare_Kanten_TC_020513_DIN_
  6
Continuous
 62
     7
100
AcDbPolyline
 90
        2
 70
     0
 43
0.5
 10
408.156223142551
 20
291.32864089414
 10
408.156223142551
 20
257.32864089414
  0
LWPOLYLINE
  5
274
330
1F
100
AcDbEntity
  8
Sichtbare_Kanten_TC_020513_DIN_
  6
Continuous
 62
     7
100
AcDbPolyline
 90
        2
 70
     0
 43
0.5
 10
408.156223142551
 20
291.32864089414
 10
408.156223142552
 20
293.07864089414
  0
LWPOLYLINE
  5
275
330
1F
100
AcDbEntity
  8
Sichtbare_Kanten_TC_020513_DIN_
  6
Continuous
 62
     7
100
AcDbPolyline
 90
        2
 70
     0
 43
0.5
 10
426.656223142557
 20
227.82864089414
 10
426.906223142557
 20
227.57864089414
  0
LWPOLYLINE
  5
276
330
1F
100
AcDbEntity
  8
Sichtbare_Kanten_TC_020513_DIN_
  6
Continuous
 62
     7
100
AcDbPolyline
 90
        2
 70
     0
 43
0.5
 10
426.656223142557
 20
232.32864089414
 10
426.906223142557
 20
232.57864089414
  0
LWPOLYLINE
  5
277
330
1F
100
AcDbEntity
  8
Sichtbare_Kanten_TC_020513_DIN_
  6
Continuous
 62
     7
100
AcDbPolyline
 90
        2
 70
     0
 43
0.5
 10
426.906223142557
 20
227.57864089414
 10
431.656223142557
 20
227.57864089414
  0
LWPOLYLINE
  5
278
330
1F
100
AcDbEntity
  8
Sichtbare_Kanten_TC_020513_DIN_
  6
Continuous
 62
     7
100
AcDbPolyline
 90
        2
 70
     0
 43
0.5
 10
426.906223142557
 20
232.57864089414
 10
431.656223142557
 20
232.57864089414
  0
LWPOLYLINE
  5
279
330
1F
100
AcDbEntity
  8
Sichtbare_Kanten_TC_020513_DIN_
  6
Continuous
 62
     7
100
AcDbPolyline
 90
        2
 70
     0
 43
0.5
 10
431.656223142557
 20
227.57864089414
 10
433.156223142557
 20
226.07864089414
  0
LWPOLYLINE
  5
27A
330
1F
100
AcDbEntity
  8
Sichtbare_Kanten_TC_020513_DIN_
  6
Continuous
 62
     7
100
AcDbPolyline
 90
        2
 70
     0
 43
0.5
 10
431.656223142557
 20
232.57864089414
 10
433.156223142552
 20
234.07864089414
  0
LWPOLYLINE
  5
27B
330
1F
100
AcDbEntity
  8
Sichtbare_Kanten_TC_020513_DIN_
  6
Continuous
 62
     7
100
AcDbPolyline
 90
        2
 70
     0
 43
0.5
 10
483.156223142557
 20
232.32864089414
 10
482.906223142557
 20
232.57864089414
  0
LWPOLYLINE
  5
27C
330
1F
100
AcDbEntity
  8
Sichtbare_Kanten_TC_020513_DIN_
  6
Continuous
 62
     7
100
AcDbPolyline
 90
        2
 70
     0
 43
0.5
 10
483.156223142557
 20
227.82864089414
 10
482.906223142557
 20
227.57864089414
  0
LWPOLYLINE
  5
27D
330
1F
100
AcDbEntity
  8
Sichtbare_Kanten_TC_020513_DIN_
  6
Continuous
 62
     7
100
AcDbPolyline
 90
        2
 70
     0
 43
0.5
 10
478.156223142557
 20
227.57864089414
 10
482.906223142557
 20
227.57864089414
  0
LWPOLYLINE
  5
27E
330
1F
100
AcDbEntity
  8
Sichtbare_Kanten_TC_020513_DIN_
  6
Continuous
 62
     7
100
AcDbPolyline
 90
        2
 70
     0
 43
0.5
 10
478.156223142557
 20
232.57864089414
 10
482.906223142557
 20
232.57864089414
  0
LWPOLYLINE
  5
27F
330
1F
100
AcDbEntity
  8
Sichtbare_Kanten_TC_020513_DIN_
  6
Continuous
 62
     7
100
AcDbPolyline
 90
        2
 70
     0
 43
0.5
 10
478.156223142557
 20
232.57864089414
 10
476.656223142552
 20
234.07864089414
  0
LWPOLYLINE
  5
280
330
1F
100
AcDbEntity
  8
Sichtbare_Kanten_TC_020513_DIN_
  6
Continuous
 62
     7
100
AcDbPolyline
 90
        2
 70
     0
 43
0.5
 10
478.156223142557
 20
227.57864089414
 10
476.656223142557
 20
226.07864089414
  0
LWPOLYLINE
  5
281
330
1F
100
AcDbEntity
  8
Sichtbare_Kanten_TC_020513_DIN_
  6
Continuous
 62
     7
100
AcDbPolyline
 90
        2
 70
     0
 43
0.5
 10
426.656223142557
 20
227.82864089414
 10
426.656223142557
 20
232.32864089414
  0
LWPOLYLINE
  5
282
330
1F
100
AcDbEntity
  8
Sichtbare_Kanten_TC_020513_DIN_
  6
Continuous
 62
     7
100
AcDbPolyline
 90
        2
 70
     0
 43
0.5
 10
426.906223142557
 20
227.57864089414
 10
426.906223142557
 20
232.57864089414
  0
LWPOLYLINE
  5
283
330
1F
100
AcDbEntity
  8
Sichtbare_Kanten_TC_020513_DIN_
  6
Continuous
 62
     7
100
AcDbPolyline
 90
        2
 70
     0
 43
0.5
 10
431.656223142557
 20
227.57864089414
 10
431.656223142557
 20
232.57864089414
  0
LWPOLYLINE
  5
284
330
1F
100
AcDbEntity
  8
Sichtbare_Kanten_TC_020513_DIN_
  6
Continuous
 62
     7
100
AcDbPolyline
 90
        2
 70
     0
 43
0.5
 10
483.156223142557
 20
227.82864089414
 10
483.156223142557
 20
232.32864089414
  0
LWPOLYLINE
  5
285
330
1F
100
AcDbEntity
  8
Sichtbare_Kanten_TC_020513_DIN_
  6
Continuous
 62
     7
100
AcDbPolyline
 90
        2
 70
     0
 43
0.5
 10
482.906223142557
 20
227.57864089414
 10
482.906223142557
 20
232.57864089414
  0
LWPOLYLINE
  5
286
330
1F
100
AcDbEntity
  8
Sichtbare_Kanten_TC_020513_DIN_
  6
Continuous
 62
     7
100
AcDbPolyline
 90
        2
 70
     0
 43
0.5
 10
478.156223142557
 20
227.57864089414
 10
478.156223142557
 20
232.57864089414
  0
LWPOLYLINE
  5
287
330
1F
100
AcDbEntity
  8
Sichtbare_Kanten_TC_020513_DIN_
  6
Continuous
 62
     7
100
AcDbPolyline
 90
        2
 70
     0
 43
0.5
 10
443.156223142547
 20
197.07864089414
 10
443.156223142547
 20
186.57864089414
  0
LWPOLYLINE
  5
288
330
1F
100
AcDbEntity
  8
Sichtbare_Kanten_TC_020513_DIN_
  6
Continuous
 62
     7
100
AcDbPolyline
 90
        2
 70
     0
 43
0.5
 10
466.656223142547
 20
186.57864089414
 10
466.656223142547
 20
197.07864089414
  0
LWPOLYLINE
  5
289
330
1F
100
AcDbEntity
  8
Sichtbare_Kanten_TC_020513_DIN_
  6
Continuous
 62
     7
100
AcDbPolyline
 90
        2
 70
     0
 43
0.5
 10
482.406223142547
 20
186.57864089414
 10
466.656223142547
 20
186.57864089414
  0
LWPOLYLINE
  5
28A
330
1F
100
AcDbEntity
  8
Sichtbare_Kanten_TC_020513_DIN_
  6
Continuous
 62
     7
100
AcDbPolyline
 90
        2
 70
     0
 43
0.5
 10
427.406223142547
 20
186.57864089414
 10
443.156223142547
 20
186.57864089414
  0
LWPOLYLINE
  5
28B
330
1F
100
AcDbEntity
  8
Sichtbare_Kanten_TC_020513_DIN_
  6
Continuous
 62
     7
100
AcDbPolyline
 90
        2
 70
     0
 43
0.5
 10
427.406223142547
 20
182.57864089414
 10
482.406223142547
 20
182.57864089414
  0
LWPOLYLINE
  5
28C
330
1F
100
AcDbEntity
  8
Sichtbare_Kanten_TC_020513_DIN_
  6
Continuous
 62
     7
100
AcDbPolyline
 90
        2
 70
     0
 43
0.5
 10
426.406223142548
 20
186.57864089414
 10
426.406223142548
 20
182.57864089414
  0
LWPOLYLINE
  5
28D
330
1F
100
AcDbEntity
  8
Sichtbare_Kanten_TC_020513_DIN_
  6
Continuous
 62
     7
100
AcDbPolyline
 90
        2
 70
     0
 43
0.5
 10
426.406223142548
 20
186.57864089414
 10
427.406223142547
 20
186.57864089414
  0
LWPOLYLINE
  5
28E
330
1F
100
AcDbEntity
  8
Sichtbare_Kanten_TC_020513_DIN_
  6
Continuous
 62
     7
100
AcDbPolyline
 90
        2
 70
     0
 43
0.5
 10
427.406223142547
 20
182.57864089414
 10
426.406223142548
 20
182.57864089414
  0
LWPOLYLINE
  5
28F
330
1F
100
AcDbEntity
  8
Sichtbare_Kanten_TC_020513_DIN_
  6
Continuous
 62
     7
100
AcDbPolyline
 90
        2
 70
     0
 43
0.5
 10
483.406223142548
 20
182.57864089414
 10
483.406223142548
 20
186.57864089414
  0
LWPOLYLINE
  5
290
330
1F
100
AcDbEntity
  8
Sichtbare_Kanten_TC_020513_DIN_
  6
Continuous
 62
     7
100
AcDbPolyline
 90
        2
 70
     0
 43
0.5
 10
483.406223142548
 20
182.57864089414
 10
482.406223142547
 20
182.57864089414
  0
LWPOLYLINE
  5
291
330
1F
100
AcDbEntity
  8
Sichtbare_Kanten_TC_020513_DIN_
  6
Continuous
 62
     7
100
AcDbPolyline
 90
        2
 70
     0
 43
0.5
 10
482.406223142547
 20
186.57864089414
 10
483.406223142548
 20
186.57864089414
  0
LWPOLYLINE
  5
292
330
1F
100
AcDbEntity
  8
Sichtbare_Kanten_TC_020513_DIN_
  6
Continuous
 62
     7
100
AcDbPolyline
 90
        2
 70
     0
 43
0.5
 10
476.656223142552
 20
234.07864089414
 10
476.656223142552
 20
186.57864089414
  0
LWPOLYLINE
  5
293
330
1F
100
AcDbEntity
  8
Sichtbare_Kanten_TC_020513_DIN_
  6
Continuous
 62
     7
100
AcDbPolyline
 90
        2
 70
     0
 43
0.5
 10
433.156223142552
 20
234.07864089414
 10
433.156223142552
 20
186.57864089414
  0
LWPOLYLINE
  5
294
330
1F
100
AcDbEntity
  8
Sichtbare_Kanten_TC_020513_DIN_
  6
Continuous
 62
     7
100
AcDbPolyline
 90
        2
 70
     0
 43
0.5
 10
259.53035050529
 20
244.07864089414
 10
259.53035050529
 20
243.57864089414
  0
LWPOLYLINE
  5
295
330
1F
100
AcDbEntity
  8
Sichtbare_Kanten_TC_020513_DIN_
  6
Continuous
 62
     7
100
AcDbPolyline
 90
        2
 70
     0
 43
0.5
 10
241.23035050529
 20
243.57864089414
 10
241.23035050529
 20
244.07864089414
  0
LWPOLYLINE
  5
296
330
1F
100
AcDbEntity
  8
Sichtbare_Kanten_TC_020513_DIN_
  6
Continuous
 62
     7
100
AcDbPolyline
 90
        2
 70
     0
 43
0.5
 10
237.13035050529
 20
241.07864089414
 10
241.23035050529
 20
241.07864089414
  0
LWPOLYLINE
  5
297
330
1F
100
AcDbEntity
  8
Sichtbare_Kanten_TC_020513_DIN_
  6
Continuous
 62
     7
100
AcDbPolyline
 90
        2
 70
     0
 43
0.5
 10
259.53035050529
 20
241.07864089414
 10
263.63035050529
 20
241.07864089414
  0
LWPOLYLINE
  5
298
330
1F
100
AcDbEntity
  8
Sichtbare_Kanten_TC_020513_DIN_
  6
Continuous
 62
     7
100
AcDbPolyline
 90
        2
 70
     0
 43
0.5
 10
263.63035050529
 20
243.57864089414
 10
263.63035050529
 20
239.57864089414
  0
LWPOLYLINE
  5
299
330
1F
100
AcDbEntity
  8
Sichtbare_Kanten_TC_020513_DIN_
  6
Continuous
 62
     7
100
AcDbPolyline
 90
        2
 70
     0
 43
0.5
 10
259.53035050529
 20
243.57864089414
 10
263.63035050529
 20
243.57864089414
  0
LWPOLYLINE
  5
29A
330
1F
100
AcDbEntity
  8
Sichtbare_Kanten_TC_020513_DIN_
  6
Continuous
 62
     7
100
AcDbPolyline
 90
        2
 70
     0
 43
0.5
 10
241.23035050529
 20
241.07864089414
 10
241.23035050529
 20
241.672160104261
  0
LWPOLYLINE
  5
29B
330
1F
100
AcDbEntity
  8
Sichtbare_Kanten_TC_020513_DIN_
  6
Continuous
 62
     7
100
AcDbPolyline
 90
        2
 70
     0
 43
0.5
 10
241.23035050529
 20
243.57864089414
 10
241.23035050529
 20
241.672160104261
  0
LWPOLYLINE
  5
29C
330
1F
100
AcDbEntity
  8
Sichtbare_Kanten_TC_020513_DIN_
  6
Continuous
 62
     7
100
AcDbPolyline
 90
        2
 70
     0
 43
0.5
 10
259.53035050529
 20
241.672160104261
 10
259.53035050529
 20
243.57864089414
  0
LWPOLYLINE
  5
29D
330
1F
100
AcDbEntity
  8
Sichtbare_Kanten_TC_020513_DIN_
  6
Continuous
 62
     7
100
AcDbPolyline
 90
        2
 70
     0
 43
0.5
 10
259.53035050529
 20
241.672160104261
 10
259.53035050529
 20
241.07864089414
  0
LWPOLYLINE
  5
29E
330
1F
100
AcDbEntity
  8
Sichtbare_Kanten_TC_020513_DIN_
  6
Continuous
 62
     7
100
AcDbPolyline
 90
        2
 70
     0
 43
0.5
 10
237.13035050529
 20
239.57864089414
 10
237.13035050529
 20
243.57864089414
  0
LWPOLYLINE
  5
29F
330
1F
100
AcDbEntity
  8
Sichtbare_Kanten_TC_020513_DIN_
  6
Continuous
 62
     7
100
AcDbPolyline
 90
        2
 70
     0
 43
0.5
 10
237.13035050529
 20
243.57864089414
 10
241.23035050529
 20
243.57864089414
  0
LWPOLYLINE
  5
2A0
330
1F
100
AcDbEntity
  8
Sichtbare_Kanten_TC_020513_DIN_
  6
Continuous
 62
     7
100
AcDbPolyline
 90
        2
 70
     0
 43
0.5
 10
235.88035050529
 20
244.07864089414
 10
241.23035050529
 20
244.07864089414
  0
LWPOLYLINE
  5
2A1
330
1F
100
AcDbEntity
  8
Sichtbare_Kanten_TC_020513_DIN_
  6
Continuous
 62
     7
100
AcDbPolyline
 90
        2
 70
     0
 43
0.5
 10
259.53035050529
 20
244.07864089414
 10
264.88035050529
 20
244.07864089414
  0
LWPOLYLINE
  5
2A2
330
1F
100
AcDbEntity
  8
Sichtbare_Kanten_TC_020513_DIN_
  6
Continuous
 62
     7
100
AcDbPolyline
 90
        2
 70
     0
 43
0.5
 10
235.38035050529
 20
243.57864089414
 10
235.38035050529
 20
239.57864089414
  0
LWPOLYLINE
  5
2A3
330
1F
100
AcDbEntity
  8
Sichtbare_Kanten_TC_020513_DIN_
  6
Continuous
 62
     7
100
AcDbPolyline
 90
        2
 70
     0
 43
0.5
 10
265.38035050529
 20
239.57864089414
 10
265.38035050529
 20
243.57864089414
  0
LWPOLYLINE
  5
2A4
330
1F
100
AcDbEntity
  8
Sichtbare_Kanten_TC_020513_DIN_
  6
Continuous
 62
     7
100
AcDbPolyline
 90
        2
 70
     0
 43
0.5
 10
285.88035050529
 20
234.07864089414
 10
285.88035050529
 20
239.57864089414
  0
LWPOLYLINE
  5
2A5
330
1F
100
AcDbEntity
  8
Sichtbare_Kanten_TC_020513_DIN_
  6
Continuous
 62
     7
100
AcDbPolyline
 90
        2
 70
     0
 43
0.5
 10
279.88035050529
 20
234.07864089414
 10
285.88035050529
 20
234.07864089414
  0
LWPOLYLINE
  5
2A6
330
1F
100
AcDbEntity
  8
Sichtbare_Kanten_TC_020513_DIN_
  6
Continuous
 62
     7
100
AcDbPolyline
 90
        2
 70
     0
 43
0.5
 10
279.88035050529
 20
234.07864089414
 10
220.88035050529
 20
234.07864089414
  0
LWPOLYLINE
  5
2A7
330
1F
100
AcDbEntity
  8
Sichtbare_Kanten_TC_020513_DIN_
  6
Continuous
 62
     7
100
AcDbPolyline
 90
        2
 70
     0
 43
0.5
 10
214.88035050529
 20
234.07864089414
 10
220.88035050529
 20
234.07864089414
  0
LWPOLYLINE
  5
2A8
330
1F
100
AcDbEntity
  8
Sichtbare_Kanten_TC_020513_DIN_
  6
Continuous
 62
     7
100
AcDbPolyline
 90
        2
 70
     0
 43
0.5
 10
214.88035050529
 20
234.07864089414
 10
214.88035050529
 20
239.57864089414
  0
LWPOLYLINE
  5
2A9
330
1F
100
AcDbEntity
  8
Sichtbare_Kanten_TC_020513_DIN_
  6
Continuous
 62
     7
100
AcDbPolyline
 90
        2
 70
     0
 43
0.5
 10
279.88035050529
 20
239.57864089414
 10
285.88035050529
 20
239.57864089414
  0
LWPOLYLINE
  5
2AA
330
1F
100
AcDbEntity
  8
Sichtbare_Kanten_TC_020513_DIN_
  6
Continuous
 62
     7
100
AcDbPolyline
 90
        2
 70
     0
 43
0.5
 10
279.88035050529
 20
239.57864089414
 10
220.88035050529
 20
239.57864089414
  0
LWPOLYLINE
  5
2AB
330
1F
100
AcDbEntity
  8
Sichtbare_Kanten_TC_020513_DIN_
  6
Continuous
 62
     7
100
AcDbPolyline
 90
        2
 70
     0
 43
0.5
 10
214.88035050529
 20
239.57864089414
 10
220.88035050529
 20
239.57864089414
  0
LWPOLYLINE
  5
2AC
330
1F
100
AcDbEntity
  8
Sichtbare_Kanten_TC_020513_DIN_
  6
Continuous
 62
     7
100
AcDbPolyline
 90
        2
 70
     0
 43
0.5
 10
245.08035050529
 20
243.351424175427
 10
255.68035050529
 20
243.351424175427
  0
LWPOLYLINE
  5
2AD
330
1F
100
AcDbEntity
  8
Sichtbare_Kanten_TC_020513_DIN_
  6
Continuous
 62
     7
100
AcDbPolyline
 90
        2
 70
     0
 43
0.5
 10
256.38035050529
 20
239.57864089414
 10
256.38035050529
 20
242.655584738671
  0
LWPOLYLINE
  5
2AE
330
1F
100
AcDbEntity
  8
Sichtbare_Kanten_TC_020513_DIN_
  6
Continuous
 62
     7
100
AcDbPolyline
 90
        2
 70
     0
 43
0.5
 10
244.38035050529
 20
242.655584738671
 10
244.38035050529
 20
239.57864089414
  0
LWPOLYLINE
  5
2AF
330
1F
100
AcDbEntity
  8
Sichtbare_Kanten_TC_020513_DIN_
  6
Continuous
 62
     7
100
AcDbPolyline
 90
        2
 70
     0
 43
0.5
 10
245.08035050529
 20
243.405857612853
 10
255.68035050529
 20
243.405857612853
  0
LWPOLYLINE
  5
2B0
330
1F
100
AcDbEntity
  8
Sichtbare_Kanten_TC_020513_DIN_
  6
Continuous
 62
     7
100
AcDbPolyline
 90
        2
 70
     0
 43
0.5
 10
256.38035050529
 20
242.655584738671
 10
256.38035050529
 20
242.710018176097
  0
LWPOLYLINE
  5
2B1
330
1F
100
AcDbEntity
  8
Sichtbare_Kanten_TC_020513_DIN_
  6
Continuous
 62
     7
100
AcDbPolyline
 90
        2
 70
     0
 43
0.5
 10
244.38035050529
 20
242.710018176097
 10
244.38035050529
 20
242.655584738671
  0
LWPOLYLINE
  5
2B2
330
1F
100
AcDbEntity
  8
Sichtbare_Kanten_TC_020513_DIN_
  6
Continuous
 62
     7
100
AcDbPolyline
 90
        2
 70
     0
 43
0.5
 10
241.23035050529
 20
241.07864089414
 10
241.38035050529
 20
241.07864089414
  0
LWPOLYLINE
  5
2B3
330
1F
100
AcDbEntity
  8
Sichtbare_Kanten_TC_020513_DIN_
  6
Continuous
 62
     7
100
AcDbPolyline
 90
        2
 70
     0
 43
0.5
 10
259.38035050529
 20
241.07864089414
 10
259.53035050529
 20
241.07864089414
  0
LWPOLYLINE
  5
2B4
330
1F
100
AcDbEntity
  8
Sichtbare_Kanten_TC_020513_DIN_
  6
Continuous
 62
     7
100
AcDbPolyline
 90
        2
 70
     0
 43
0.5
 10
237.38035050529
 20
239.57864089414
 10
237.38035050529
 20
241.07864089414
  0
LWPOLYLINE
  5
2B5
330
1F
100
AcDbEntity
  8
Sichtbare_Kanten_TC_020513_DIN_
  6
Continuous
 62
     7
100
AcDbPolyline
 90
        2
 70
     0
 43
0.5
 10
263.38035050529
 20
241.07864089414
 10
263.38035050529
 20
239.57864089414
  0
LWPOLYLINE
  5
2B6
330
1F
100
AcDbEntity
  8
Sichtbare_Kanten_TC_020513_DIN_
  6
Continuous
 62
     7
100
AcDbPolyline
 90
        2
 70
     0
 43
0.5
 10
244.40121477378
 20
242.878640894139
 10
241.38035050529
 20
242.878640894139
  0
LWPOLYLINE
  5
2B7
330
1F
100
AcDbEntity
  8
Sichtbare_Kanten_TC_020513_DIN_
  6
Continuous
 62
     7
100
AcDbPolyline
 90
        2
 70
     0
 43
0.5
 10
259.38035050529
 20
242.878640894139
 10
256.3594862368
 20
242.878640894139
  0
LWPOLYLINE
  5
2B8
330
1F
100
AcDbEntity
  8
Sichtbare_Kanten_TC_020513_DIN_
  6
Continuous
 62
     7
100
AcDbPolyline
 90
        2
 70
     0
 43
0.5
 10
241.38035050529
 20
251.328640894139
 10
241.38035050529
 20
242.878640894139
  0
LWPOLYLINE
  5
2B9
330
1F
100
AcDbEntity
  8
Sichtbare_Kanten_TC_020513_DIN_
  6
Continuous
 62
     7
100
AcDbPolyline
 90
        2
 70
     0
 43
0.5
 10
241.38035050529
 20
242.67864089414
 10
241.38035050529
 20
242.878640894139
  0
LWPOLYLINE
  5
2BA
330
1F
100
AcDbEntity
  8
Sichtbare_Kanten_TC_020513_DIN_
  6
Continuous
 62
     7
100
AcDbPolyline
 90
        2
 70
     0
 43
0.5
 10
241.38035050529
 20
242.67864089414
 10
241.38035050529
 20
239.57864089414
  0
LWPOLYLINE
  5
2BB
330
1F
100
AcDbEntity
  8
Sichtbare_Kanten_TC_020513_DIN_
  6
Continuous
 62
     7
100
AcDbPolyline
 90
        2
 70
     0
 43
0.5
 10
259.38035050529
 20
239.57864089414
 10
259.38035050529
 20
242.67864089414
  0
LWPOLYLINE
  5
2BC
330
1F
100
AcDbEntity
  8
Sichtbare_Kanten_TC_020513_DIN_
  6
Continuous
 62
     7
100
AcDbPolyline
 90
        2
 70
     0
 43
0.5
 10
259.38035050529
 20
242.878640894139
 10
259.38035050529
 20
242.67864089414
  0
LWPOLYLINE
  5
2BD
330
1F
100
AcDbEntity
  8
Sichtbare_Kanten_TC_020513_DIN_
  6
Continuous
 62
     7
100
AcDbPolyline
 90
        2
 70
     0
 43
0.5
 10
259.38035050529
 20
242.878640894139
 10
259.38035050529
 20
251.328640894139
  0
LWPOLYLINE
  5
2BE
330
1F
100
AcDbEntity
  8
Sichtbare_Kanten_TC_020513_DIN_
  6
Continuous
 62
     7
100
AcDbPolyline
 90
        2
 70
     0
 43
0.5
 10
280.88035050529
 20
251.32864089414
 10
219.88035050529
 20
251.32864089414
  0
LWPOLYLINE
  5
2BF
330
1F
100
AcDbEntity
  8
Sichtbare_Kanten_TC_020513_DIN_
  6
Continuous
 62
     7
100
AcDbPolyline
 90
        2
 70
     0
 43
0.5
 10
240.88035050529
 20
297.32864089414
 10
240.88035050529
 20
300.32864089414
  0
LWPOLYLINE
  5
2C0
330
1F
100
AcDbEntity
  8
Sichtbare_Kanten_TC_020513_DIN_
  6
Continuous
 62
     7
100
AcDbPolyline
 90
        2
 70
     0
 43
0.5
 10
259.88035050529
 20
300.32864089414
 10
259.88035050529
 20
297.32864089414
  0
LWPOLYLINE
  5
2C1
330
1F
100
AcDbEntity
  8
Sichtbare_Kanten_TC_020513_DIN_
  6
Continuous
 62
     7
100
AcDbPolyline
 90
        2
 70
     0
 43
0.5
 10
240.88035050529
 20
300.32864089414
 10
259.88035050529
 20
300.32864089414
  0
LWPOLYLINE
  5
2C2
330
1F
100
AcDbEntity
  8
Sichtbare_Kanten_TC_020513_DIN_
  6
Continuous
 62
     7
100
AcDbPolyline
 90
        2
 70
     0
 43
0.5
 10
286.88035050529
 20
291.32864089414
 10
286.88035050529
 20
257.32864089414
  0
LWPOLYLINE
  5
2C3
330
1F
100
AcDbEntity
  8
Sichtbare_Kanten_TC_020513_DIN_
  6
Continuous
 62
     7
100
AcDbPolyline
 90
        2
 70
     0
 43
0.5
 10
259.88035050529
 20
297.32864089414
 10
280.88035050529
 20
297.32864089414
  0
LWPOLYLINE
  5
2C4
330
1F
100
AcDbEntity
  8
Sichtbare_Kanten_TC_020513_DIN_
  6
Continuous
 62
     7
100
AcDbPolyline
 90
        2
 70
     0
 43
0.5
 10
213.88035050529
 20
257.32864089414
 10
213.88035050529
 20
291.32864089414
  0
LWPOLYLINE
  5
2C5
330
1F
100
AcDbEntity
  8
Sichtbare_Kanten_TC_020513_DIN_
  6
Continuous
 62
     7
100
AcDbPolyline
 90
        2
 70
     0
 43
0.5
 10
219.88035050529
 20
297.32864089414
 10
240.88035050529
 20
297.32864089414
  0
LWPOLYLINE
  5
2C6
330
1F
100
AcDbEntity
  8
Sichtbare_Kanten_TC_020513_DIN_
  6
Continuous
 62
     7
100
AcDbPolyline
 90
        2
 70
     0
 43
0.5
 10
217.38035050529
 20
291.32864089414
 10
217.38035050529
 20
257.32864089414
  0
LWPOLYLINE
  5
2C7
330
1F
100
AcDbEntity
  8
Sichtbare_Kanten_TC_020513_DIN_
  6
Continuous
 62
     7
100
AcDbPolyline
 90
        2
 70
     0
 43
0.5
 10
219.88035050529
 20
254.82864089414
 10
280.88035050529
 20
254.82864089414
  0
LWPOLYLINE
  5
2C8
330
1F
100
AcDbEntity
  8
Sichtbare_Kanten_TC_020513_DIN_
  6
Continuous
 62
     7
100
AcDbPolyline
 90
        2
 70
     0
 43
0.5
 10
283.38035050529
 20
257.32864089414
 10
283.38035050529
 20
291.32864089414
  0
LWPOLYLINE
  5
2C9
330
1F
100
AcDbEntity
  8
Sichtbare_Kanten_TC_020513_DIN_
  6
Continuous
 62
     7
100
AcDbPolyline
 90
        2
 70
     0
 43
0.5
 10
280.88035050529
 20
293.82864089414
 10
219.88035050529
 20
293.82864089414
  0
LWPOLYLINE
  5
2CA
330
1F
100
AcDbEntity
  8
Sichtbare_Kanten_TC_020513_DIN_
  6
Continuous
 62
     7
100
AcDbPolyline
 90
        2
 70
     0
 43
0.5
 10
214.88035050529
 20
258.07864089414
 10
214.88035050529
 20
290.57864089414
  0
LWPOLYLINE
  5
2CB
330
1F
100
AcDbEntity
  8
Sichtbare_Kanten_TC_020513_DIN_
  6
Continuous
 62
     7
100
AcDbPolyline
 90
        2
 70
     0
 43
0.5
 10
220.63035050529
 20
296.32864089414
 10
280.13035050529
 20
296.32864089414
  0
LWPOLYLINE
  5
2CC
330
1F
100
AcDbEntity
  8
Sichtbare_Kanten_TC_020513_DIN_
  6
Continuous
 62
     7
100
AcDbPolyline
 90
        2
 70
     0
 43
0.5
 10
285.88035050529
 20
290.57864089414
 10
285.88035050529
 20
258.07864089414
  0
LWPOLYLINE
  5
2CD
330
1F
100
AcDbEntity
  8
Sichtbare_Kanten_TC_020513_DIN_
  6
Continuous
 62
     7
100
AcDbPolyline
 90
        2
 70
     0
 43
0.5
 10
280.13035050529
 20
252.32864089414
 10
220.63035050529
 20
252.32864089414
  0
LWPOLYLINE
  5
2CE
330
1F
100
AcDbEntity
  8
Sichtbare_Kanten_TC_020513_DIN_
  6
Continuous
 62
     7
100
AcDbPolyline
 90
        2
 70
     0
 43
0.5
 10
286.88035050529
 20
269.82864089414
 10
292.13035050529
 20
269.82864089414
  0
LWPOLYLINE
  5
2CF
330
1F
100
AcDbEntity
  8
Sichtbare_Kanten_TC_020513_DIN_
  6
Continuous
 62
     7
100
AcDbPolyline
 90
        2
 70
     0
 43
0.5
 10
286.88035050529
 20
278.82864089414
 10
292.13035050529
 20
278.82864089414
  0
LWPOLYLINE
  5
2D0
330
1F
100
AcDbEntity
  8
Sichtbare_Kanten_TC_020513_DIN_
  6
Continuous
 62
     7
100
AcDbPolyline
 90
        2
 70
     0
 43
0.5
 10
292.13035050529
 20
270.08600020702
 10
292.13035050529
 20
269.82864089414
  0
LWPOLYLINE
  5
2D1
330
1F
100
AcDbEntity
  8
Sichtbare_Kanten_TC_020513_DIN_
  6
Continuous
 62
     7
100
AcDbPolyline
 90
        2
 70
     0
 43
0.5
 10
292.13035050529
 20
278.82864089414
 10
292.13035050529
 20
278.571281581259
  0
LWPOLYLINE
  5
2D2
330
1F
100
AcDbEntity
  8
Sichtbare_Kanten_TC_020513_DIN_
  6
Continuous
 62
     7
100
AcDbPolyline
 90
        2
 70
     0
 43
0.5
 10
286.88035050529
 20
278.571281581259
 10
292.13035050529
 20
278.571281581259
  0
LWPOLYLINE
  5
2D3
330
1F
100
AcDbEntity
  8
Sichtbare_Kanten_TC_020513_DIN_
  6
Continuous
 62
     7
100
AcDbPolyline
 90
        2
 70
     0
 43
0.5
 10
292.13035050529
 20
270.08600020702
 10
292.13035050529
 20
278.571281581259
  0
LWPOLYLINE
  5
2D4
330
1F
100
AcDbEntity
  8
Sichtbare_Kanten_TC_020513_DIN_
  6
Continuous
 62
     7
100
AcDbPolyline
 90
        2
 70
     0
 43
0.5
 10
286.88035050529
 20
270.08600020702
 10
292.13035050529
 20
270.08600020702
  0
LWPOLYLINE
  5
2D5
330
1F
100
AcDbEntity
  8
Sichtbare_Kanten_TC_020513_DIN_
  6
Continuous
 62
     7
100
AcDbPolyline
 90
        2
 70
     0
 43
0.5
 10
208.63035050529
 20
269.82864089414
 10
213.88035050529
 20
269.82864089414
  0
LWPOLYLINE
  5
2D6
330
1F
100
AcDbEntity
  8
Sichtbare_Kanten_TC_020513_DIN_
  6
Continuous
 62
     7
100
AcDbPolyline
 90
        2
 70
     0
 43
0.5
 10
208.63035050529
 20
278.82864089414
 10
213.88035050529
 20
278.82864089414
  0
LWPOLYLINE
  5
2D7
330
1F
100
AcDbEntity
  8
Sichtbare_Kanten_TC_020513_DIN_
  6
Continuous
 62
     7
100
AcDbPolyline
 90
        2
 70
     0
 43
0.5
 10
208.63035050529
 20
270.08600020702
 10
208.63035050529
 20
269.82864089414
  0
LWPOLYLINE
  5
2D8
330
1F
100
AcDbEntity
  8
Sichtbare_Kanten_TC_020513_DIN_
  6
Continuous
 62
     7
100
AcDbPolyline
 90
        2
 70
     0
 43
0.5
 10
208.63035050529
 20
278.82864089414
 10
208.63035050529
 20
278.571281581259
  0
LWPOLYLINE
  5
2D9
330
1F
100
AcDbEntity
  8
Sichtbare_Kanten_TC_020513_DIN_
  6
Continuous
 62
     7
100
AcDbPolyline
 90
        2
 70
     0
 43
0.5
 10
213.88035050529
 20
270.08600020702
 10
208.63035050529
 20
270.08600020702
  0
LWPOLYLINE
  5
2DA
330
1F
100
AcDbEntity
  8
Sichtbare_Kanten_TC_020513_DIN_
  6
Continuous
 62
     7
100
AcDbPolyline
 90
        2
 70
     0
 43
0.5
 10
208.63035050529
 20
270.08600020702
 10
208.63035050529
 20
278.571281581259
  0
LWPOLYLINE
  5
2DB
330
1F
100
AcDbEntity
  8
Sichtbare_Kanten_TC_020513_DIN_
  6
Continuous
 62
     7
100
AcDbPolyline
 90
        2
 70
     0
 43
0.5
 10
213.88035050529
 20
278.571281581259
 10
208.63035050529
 20
278.571281581259
  0
LWPOLYLINE
  5
2DC
330
1F
100
AcDbEntity
  8
Sichtbare_Kanten_TC_020513_DIN_
  6
Continuous
 62
     7
100
AcDbPolyline
 90
        2
 70
     0
 43
0.5
 10
215.13035050529
 20
234.07864089414
 10
215.13035050529
 20
186.57864089414
  0
LWPOLYLINE
  5
2DD
330
1F
100
AcDbEntity
  8
Sichtbare_Kanten_TC_020513_DIN_
  6
Continuous
 62
     7
100
AcDbPolyline
 90
        2
 70
     0
 43
0.5
 10
285.63035050529
 20
234.07864089414
 10
285.63035050529
 20
186.57864089414
  0
LWPOLYLINE
  5
2DE
330
1F
100
AcDbEntity
  8
Sichtbare_Kanten_TC_020513_DIN_
  6
Continuous
 62
     7
100
AcDbPolyline
 90
        2
 70
     0
 43
0.5
 10
215.13035050529
 20
208.82864089414
 10
203.63035050529
 20
208.82864089414
  0
LWPOLYLINE
  5
2DF
330
1F
100
AcDbEntity
  8
Sichtbare_Kanten_TC_020513_DIN_
  6
Continuous
 62
     7
100
AcDbPolyline
 90
        2
 70
     0
 43
0.5
 10
203.63035050529
 20
208.82864089414
 10
203.63035050529
 20
197.07864089414
  0
LWPOLYLINE
  5
2E0
330
1F
100
AcDbEntity
  8
Sichtbare_Kanten_TC_020513_DIN_
  6
Continuous
 62
     7
100
AcDbPolyline
 90
        2
 70
     0
 43
0.5
 10
203.63035050529
 20
186.57864089414
 10
203.63035050529
 20
197.07864089414
  0
LWPOLYLINE
  5
2E1
330
1F
100
AcDbEntity
  8
Sichtbare_Kanten_TC_020513_DIN_
  6
Continuous
 62
     7
100
AcDbPolyline
 90
        2
 70
     0
 43
0.5
 10
251.50535050529
 20
219.117823386238
 10
251.50535050529
 20
224.882220707826
  0
LWPOLYLINE
  5
2E2
330
1F
100
AcDbEntity
  8
Sichtbare_Kanten_TC_020513_DIN_
  6
Continuous
 62
     7
100
AcDbPolyline
 90
        2
 70
     0
 43
0.5
 10
252.25535050529
 20
226.039458402041
 10
252.25535050529
 20
219.117823386238
  0
LWPOLYLINE
  5
2E3
330
1F
100
AcDbEntity
  8
Sichtbare_Kanten_TC_020513_DIN_
  6
Continuous
 62
     7
100
AcDbPolyline
 90
        2
 70
     0
 43
0.5
 10
250.38035050529
 20
224.60739640678
 10
251.576621645799
 20
226.25939880286
  0
LWPOLYLINE
  5
2E4
330
1F
100
AcDbEntity
  8
Sichtbare_Kanten_TC_020513_DIN_
  6
Continuous
 62
     7
100
AcDbPolyline
 90
        2
 70
     0
 43
0.5
 10
249.18407936478
 20
226.259398802861
 10
250.38035050529
 20
224.60739640678
  0
LWPOLYLINE
  5
2E5
330
1F
100
AcDbEntity
  8
Sichtbare_Kanten_TC_020513_DIN_
  6
Continuous
 62
     7
100
AcDbPolyline
 90
        2
 70
     0
 43
0.5
 10
248.50535050529
 20
220.891861847777
 10
248.50535050529
 20
226.039458402041
  0
LWPOLYLINE
  5
2E6
330
1F
100
AcDbEntity
  8
Sichtbare_Kanten_TC_020513_DIN_
  6
Continuous
 62
     7
100
AcDbPolyline
 90
        2
 70
     0
 43
0.5
 10
249.25535050529
 20
224.882220707826
 10
249.25535050529
 20
220.891861847777
  0
LWPOLYLINE
  5
2E7
330
1F
100
AcDbEntity
  8
Sichtbare_Kanten_TC_020513_DIN_
  6
Continuous
 62
     7
100
AcDbPolyline
 90
        2
 70
     0
 43
0.5
 10
250.38035050529
 20
223.32864089414
 10
249.25535050529
 20
224.882220707826
  0
LWPOLYLINE
  5
2E8
330
1F
100
AcDbEntity
  8
Sichtbare_Kanten_TC_020513_DIN_
  6
Continuous
 62
     7
100
AcDbPolyline
 90
        2
 70
     0
 43
0.5
 10
251.50535050529
 20
224.882220707826
 10
250.38035050529
 20
223.32864089414
  0
LWPOLYLINE
  5
2E9
330
1F
100
AcDbEntity
  8
Sichtbare_Kanten_TC_020513_DIN_
  6
Continuous
 62
     7
100
AcDbPolyline
 90
        2
 70
     0
 43
0.5
 10
250.192954585231
 20
217.927619176085
 10
247.117954585231
 20
219.701657637624
  0
LWPOLYLINE
  5
2EA
330
1F
100
AcDbEntity
  8
Sichtbare_Kanten_TC_020513_DIN_
  6
Continuous
 62
     7
100
AcDbPolyline
 90
        2
 70
     0
 43
0.5
 10
247.68035050529
 20
220.243063704117
 10
250.567746425348
 20
218.577258365622
  0
LWPOLYLINE
  5
2EB
330
1F
100
AcDbEntity
  8
Sichtbare_Kanten_TC_020513_DIN_
  6
Continuous
 62
     7
100
AcDbPolyline
 90
        2
 70
     0
 43
0.5
 10
247.68035050529
 20
225.130804555887
 10
247.68035050529
 20
220.243063704117
  0
LWPOLYLINE
  5
2EC
330
1F
100
AcDbEntity
  8
Sichtbare_Kanten_TC_020513_DIN_
  6
Continuous
 62
     7
100
AcDbPolyline
 90
        2
 70
     0
 43
0.5
 10
246.93035050529
 20
220.026477232392
 10
246.93035050529
 20
225.130804555887
  0
LWPOLYLINE
  5
2ED
330
1F
100
AcDbEntity
  8
Sichtbare_Kanten_TC_020513_DIN_
  6
Continuous
 62
     7
100
AcDbPolyline
 90
        2
 70
     0
 43
0.5
 10
250.38035050529
 20
227.770708268568
 10
241.38076705628
 20
222.57864089414
  0
LWPOLYLINE
  5
2EE
330
1F
100
AcDbEntity
  8
Sichtbare_Kanten_TC_020513_DIN_
  6
Continuous
 62
     7
100
AcDbPolyline
 90
        2
 70
     0
 43
0.5
 10
259.379933954299
 20
222.57864089414
 10
250.38035050529
 20
227.770708268568
  0
LWPOLYLINE
  5
2EF
330
1F
100
AcDbEntity
  8
Sichtbare_Kanten_TC_020513_DIN_
  6
Continuous
 62
     7
100
AcDbPolyline
 90
        2
 70
     0
 43
0.5
 10
250.38035050529
 20
217.386573519711
 10
259.379933954299
 20
222.57864089414
  0
LWPOLYLINE
  5
2F0
330
1F
100
AcDbEntity
  8
Sichtbare_Kanten_TC_020513_DIN_
  6
Continuous
 62
     7
100
AcDbPolyline
 90
        2
 70
     0
 43
0.5
 10
241.38076705628
 20
222.57864089414
 10
250.38035050529
 20
217.386573519711
  0
LWPOLYLINE
  5
2F1
330
1F
100
AcDbEntity
  8
Sichtbare_Kanten_TC_020513_DIN_
  6
Continuous
 62
     7
100
AcDbPolyline
 90
        2
 70
     0
 43
0.5
 10
245.43035050529
 20
220.891861847777
 10
245.43035050529
 20
224.265419940503
  0
LWPOLYLINE
  5
2F2
330
1F
100
AcDbEntity
  8
Sichtbare_Kanten_TC_020513_DIN_
  6
Continuous
 62
     7
100
AcDbPolyline
 90
        2
 70
     0
 43
0.5
 10
246.18035050529
 20
224.265419940503
 10
246.18035050529
 20
220.891861847777
  0
LWPOLYLINE
  5
2F3
330
1F
100
AcDbEntity
  8
Sichtbare_Kanten_TC_020513_DIN_
  6
Continuous
 62
     7
100
AcDbPolyline
 90
        2
 70
     0
 43
0.5
 10
255.817746425348
 20
220.956465329931
 10
253.567746425348
 20
219.658388406854
  0
LWPOLYLINE
  5
2F4
330
1F
100
AcDbEntity
  8
Sichtbare_Kanten_TC_020513_DIN_
  6
Continuous
 62
     7
100
AcDbPolyline
 90
        2
 70
     0
 43
0.5
 10
253.75535050529
 20
220.63248678104
 10
255.442954585231
 20
221.606104519468
  0
LWPOLYLINE
  5
2F5
330
1F
100
AcDbEntity
  8
Sichtbare_Kanten_TC_020513_DIN_
  6
Continuous
 62
     7
100
AcDbPolyline
 90
        2
 70
     0
 43
0.5
 10
253.75535050529
 20
222.20364089414
 10
253.75535050529
 20
220.63248678104
  0
LWPOLYLINE
  5
2F6
330
1F
100
AcDbEntity
  8
Sichtbare_Kanten_TC_020513_DIN_
  6
Continuous
 62
     7
100
AcDbPolyline
 90
        2
 70
     0
 43
0.5
 10
255.63035050529
 20
222.20364089414
 10
253.75535050529
 20
222.20364089414
  0
LWPOLYLINE
  5
2F7
330
1F
100
AcDbEntity
  8
Sichtbare_Kanten_TC_020513_DIN_
  6
Continuous
 62
     7
100
AcDbPolyline
 90
        2
 70
     0
 43
0.5
 10
253.75535050529
 20
222.95364089414
 10
255.63035050529
 20
222.95364089414
  0
LWPOLYLINE
  5
2F8
330
1F
100
AcDbEntity
  8
Sichtbare_Kanten_TC_020513_DIN_
  6
Continuous
 62
     7
100
AcDbPolyline
 90
        2
 70
     0
 43
0.5
 10
253.75535050529
 20
224.524795007239
 10
253.75535050529
 20
222.95364089414
  0
LWPOLYLINE
  5
2F9
330
1F
100
AcDbEntity
  8
Sichtbare_Kanten_TC_020513_DIN_
  6
Continuous
 62
     7
100
AcDbPolyline
 90
        2
 70
     0
 43
0.5
 10
255.442954585231
 20
223.551177268811
 10
253.75535050529
 20
224.524795007239
  0
LWPOLYLINE
  5
2FA
330
1F
100
AcDbEntity
  8
Sichtbare_Kanten_TC_020513_DIN_
  6
Continuous
 62
     7
100
AcDbPolyline
 90
        2
 70
     0
 43
0.5
 10
253.567746425348
 20
225.498893381425
 10
255.817746425348
 20
224.200816458348
  0
LWPOLYLINE
  5
2FB
330
1F
100
AcDbEntity
  8
Sichtbare_Kanten_TC_020513_DIN_
  6
Continuous
 62
     7
100
AcDbPolyline
 90
        2
 70
     0
 43
0.5
 10
253.00535050529
 20
219.983208001623
 10
253.00535050529
 20
225.174073786657
  0
LWPOLYLINE
  5
2FC
330
1F
100
AcDbEntity
  8
Sichtbare_Kanten_TC_020513_DIN_
  6
Continuous
 62
     7
100
AcDbPolyline
 90
        2
 70
     0
 43
0.5
 10
260.13035050529
 20
222.57864089414
 10
250.38035050529
 20
216.95364089414
  0
LWPOLYLINE
  5
2FD
330
1F
100
AcDbEntity
  8
Sichtbare_Kanten_TC_020513_DIN_
  6
Continuous
 62
     7
100
AcDbPolyline
 90
        2
 70
     0
 43
0.5
 10
250.38035050529
 20
228.20364089414
 10
260.13035050529
 20
222.57864089414
  0
LWPOLYLINE
  5
2FE
330
1F
100
AcDbEntity
  8
Sichtbare_Kanten_TC_020513_DIN_
  6
Continuous
 62
     7
100
AcDbPolyline
 90
        2
 70
     0
 43
0.5
 10
240.63035050529
 20
222.57864089414
 10
250.38035050529
 20
228.20364089414
  0
LWPOLYLINE
  5
2FF
330
1F
100
AcDbEntity
  8
Sichtbare_Kanten_TC_020513_DIN_
  6
Continuous
 62
     7
100
AcDbPolyline
 90
        2
 70
     0
 43
0.5
 10
250.38035050529
 20
216.95364089414
 10
240.63035050529
 20
222.57864089414
  0
LWPOLYLINE
  5
300
330
1F
100
AcDbEntity
  8
Sichtbare_Kanten_TC_020513_DIN_
  6
Continuous
 62
     7
100
AcDbPolyline
 90
        2
 70
     0
 43
0.5
 10
297.13035050529
 20
208.82864089414
 10
285.63035050529
 20
208.82864089414
  0
LWPOLYLINE
  5
301
330
1F
100
AcDbEntity
  8
Sichtbare_Kanten_TC_020513_DIN_
  6
Continuous
 62
     7
100
AcDbPolyline
 90
        2
 70
     0
 43
0.5
 10
297.13035050529
 20
186.57864089414
 10
297.13035050529
 20
197.07864089414
  0
LWPOLYLINE
  5
302
330
1F
100
AcDbEntity
  8
Sichtbare_Kanten_TC_020513_DIN_
  6
Continuous
 62
     7
100
AcDbPolyline
 90
        2
 70
     0
 43
0.5
 10
297.13035050529
 20
208.82864089414
 10
297.13035050529
 20
197.07864089414
  0
LWPOLYLINE
  5
303
330
1F
100
AcDbEntity
  8
Sichtbare_Kanten_TC_020513_DIN_
  6
Continuous
 62
     7
100
AcDbPolyline
 90
        2
 70
     0
 43
0.5
 10
286.398299697721
 20
186.57864089414
 10
296.13035050529
 20
186.57864089414
  0
LWPOLYLINE
  5
304
330
1F
100
AcDbEntity
  8
Sichtbare_Kanten_TC_020513_DIN_
  6
Continuous
 62
     7
100
AcDbPolyline
 90
        2
 70
     0
 43
0.5
 10
214.362401312859
 20
186.57864089414
 10
204.63035050529
 20
186.57864089414
  0
LWPOLYLINE
  5
305
330
1F
100
AcDbEntity
  8
Sichtbare_Kanten_TC_020513_DIN_
  6
Continuous
 62
     7
100
AcDbPolyline
 90
        2
 70
     0
 43
0.5
 10
214.362401312859
 20
182.57864089414
 10
204.63035050529
 20
182.57864089414
  0
LWPOLYLINE
  5
306
330
1F
100
AcDbEntity
  8
Sichtbare_Kanten_TC_020513_DIN_
  6
Continuous
 62
     7
100
AcDbPolyline
 90
        2
 70
     0
 43
0.5
 10
286.398299697721
 20
182.57864089414
 10
296.13035050529
 20
182.57864089414
  0
LWPOLYLINE
  5
307
330
1F
100
AcDbEntity
  8
Sichtbare_Kanten_TC_020513_DIN_
  6
Continuous
 62
     7
100
AcDbPolyline
 90
        2
 70
     0
 43
0.5
 10
274.171058361769
 20
183.07864089414
 10
226.589642648811
 20
183.07864089414
  0
LWPOLYLINE
  5
308
330
1F
100
AcDbEntity
  8
Sichtbare_Kanten_TC_020513_DIN_
  6
Continuous
 62
     7
100
AcDbPolyline
 90
        2
 70
     0
 43
0.5
 10
226.089642648811
 20
186.57864089414
 10
214.862401312859
 20
186.57864089414
  0
LWPOLYLINE
  5
309
330
1F
100
AcDbEntity
  8
Sichtbare_Kanten_TC_020513_DIN_
  6
Continuous
 62
     7
100
AcDbPolyline
 90
        2
 70
     0
 43
0.5
 10
274.671058361769
 20
186.57864089414
 10
285.898299697721
 20
186.57864089414
  0
LWPOLYLINE
  5
30A
330
1F
100
AcDbEntity
  8
Sichtbare_Kanten_TC_020513_DIN_
  6
Continuous
 62
     7
100
AcDbPolyline
 90
        2
 70
     0
 43
0.5
 10
214.862401312859
 20
183.07864089414
 10
226.089642648811
 20
183.07864089414
  0
LWPOLYLINE
  5
30B
330
1F
100
AcDbEntity
  8
Sichtbare_Kanten_TC_020513_DIN_
  6
Continuous
 62
     7
100
AcDbPolyline
 90
        2
 70
     0
 43
0.5
 10
285.898299697721
 20
183.07864089414
 10
274.671058361769
 20
183.07864089414
  0
LWPOLYLINE
  5
30C
330
1F
100
AcDbEntity
  8
Sichtbare_Kanten_TC_020513_DIN_
  6
Continuous
 62
     7
100
AcDbPolyline
 90
        2
 70
     0
 43
0.5
 10
226.589642648811
 20
186.57864089414
 10
226.089642648811
 20
186.57864089414
  0
LWPOLYLINE
  5
30D
330
1F
100
AcDbEntity
  8
Sichtbare_Kanten_TC_020513_DIN_
  6
Continuous
 62
     7
100
AcDbPolyline
 90
        2
 70
     0
 43
0.5
 10
214.362401312859
 20
186.57864089414
 10
214.862401312859
 20
186.57864089414
  0
LWPOLYLINE
  5
30E
330
1F
100
AcDbEntity
  8
Sichtbare_Kanten_TC_020513_DIN_
  6
Continuous
 62
     7
100
AcDbPolyline
 90
        2
 70
     0
 43
0.5
 10
285.898299697721
 20
186.57864089414
 10
286.398299697721
 20
186.57864089414
  0
LWPOLYLINE
  5
30F
330
1F
100
AcDbEntity
  8
Sichtbare_Kanten_TC_020513_DIN_
  6
Continuous
 62
     7
100
AcDbPolyline
 90
        2
 70
     0
 43
0.5
 10
274.671058361769
 20
186.57864089414
 10
274.171058361769
 20
186.57864089414
  0
LWPOLYLINE
  5
310
330
1F
100
AcDbEntity
  8
Sichtbare_Kanten_TC_020513_DIN_
  6
Continuous
 62
     7
100
AcDbPolyline
 90
        2
 70
     0
 43
0.5
 10
296.13035050529
 20
186.57864089414
 10
297.13035050529
 20
186.57864089414
  0
LWPOLYLINE
  5
311
330
1F
100
AcDbEntity
  8
Sichtbare_Kanten_TC_020513_DIN_
  6
Continuous
 62
     7
100
AcDbPolyline
 90
        2
 70
     0
 43
0.5
 10
297.13035050529
 20
182.57864089414
 10
297.13035050529
 20
186.57864089414
  0
LWPOLYLINE
  5
312
330
1F
100
AcDbEntity
  8
Sichtbare_Kanten_TC_020513_DIN_
  6
Continuous
 62
     7
100
AcDbPolyline
 90
        2
 70
     0
 43
0.5
 10
214.63035050529
 20
182.57864089414
 10
214.63035050529
 20
183.07864089414
  0
LWPOLYLINE
  5
313
330
1F
100
AcDbEntity
  8
Sichtbare_Kanten_TC_020513_DIN_
  6
Continuous
 62
     7
100
AcDbPolyline
 90
        2
 70
     0
 43
0.5
 10
214.63035050529
 20
182.57864089414
 10
214.362401312859
 20
182.57864089414
  0
LWPOLYLINE
  5
314
330
1F
100
AcDbEntity
  8
Sichtbare_Kanten_TC_020513_DIN_
  6
Continuous
 62
     7
100
AcDbPolyline
 90
        2
 70
     0
 43
0.5
 10
204.63035050529
 20
182.57864089414
 10
203.63035050529
 20
182.57864089414
  0
LWPOLYLINE
  5
315
330
1F
100
AcDbEntity
  8
Sichtbare_Kanten_TC_020513_DIN_
  6
Continuous
 62
     7
100
AcDbPolyline
 90
        2
 70
     0
 43
0.5
 10
203.63035050529
 20
186.57864089414
 10
203.63035050529
 20
182.57864089414
  0
LWPOLYLINE
  5
316
330
1F
100
AcDbEntity
  8
Sichtbare_Kanten_TC_020513_DIN_
  6
Continuous
 62
     7
100
AcDbPolyline
 90
        2
 70
     0
 43
0.5
 10
203.63035050529
 20
186.57864089414
 10
204.63035050529
 20
186.57864089414
  0
LWPOLYLINE
  5
317
330
1F
100
AcDbEntity
  8
Sichtbare_Kanten_TC_020513_DIN_
  6
Continuous
 62
     7
100
AcDbPolyline
 90
        2
 70
     0
 43
0.5
 10
286.398299697721
 20
182.57864089414
 10
286.13035050529
 20
182.57864089414
  0
LWPOLYLINE
  5
318
330
1F
100
AcDbEntity
  8
Sichtbare_Kanten_TC_020513_DIN_
  6
Continuous
 62
     7
100
AcDbPolyline
 90
        2
 70
     0
 43
0.5
 10
297.13035050529
 20
182.57864089414
 10
296.13035050529
 20
182.57864089414
  0
LWPOLYLINE
  5
319
330
1F
100
AcDbEntity
  8
Sichtbare_Kanten_TC_020513_DIN_
  6
Continuous
 62
     7
100
AcDbPolyline
 90
        2
 70
     0
 43
0.5
 10
286.13035050529
 20
183.07864089414
 10
286.13035050529
 20
182.57864089414
  0
LWPOLYLINE
  5
31A
330
1F
100
AcDbEntity
  8
Sichtbare_Kanten_TC_020513_DIN_
  6
Continuous
 62
     7
100
AcDbPolyline
 90
        2
 70
     0
 43
0.5
 10
214.862401312859
 20
183.07864089414
 10
214.63035050529
 20
183.07864089414
  0
LWPOLYLINE
  5
31B
330
1F
100
AcDbEntity
  8
Sichtbare_Kanten_TC_020513_DIN_
  6
Continuous
 62
     7
100
AcDbPolyline
 90
        2
 70
     0
 43
0.5
 10
226.089642648811
 20
183.07864089414
 10
226.589642648811
 20
183.07864089414
  0
LWPOLYLINE
  5
31C
330
1F
100
AcDbEntity
  8
Sichtbare_Kanten_TC_020513_DIN_
  6
Continuous
 62
     7
100
AcDbPolyline
 90
        2
 70
     0
 43
0.5
 10
274.171058361769
 20
183.07864089414
 10
274.671058361769
 20
183.07864089414
  0
LWPOLYLINE
  5
31D
330
1F
100
AcDbEntity
  8
Sichtbare_Kanten_TC_020513_DIN_
  6
Continuous
 62
     7
100
AcDbPolyline
 90
        2
 70
     0
 43
0.5
 10
286.13035050529
 20
183.07864089414
 10
285.898299697721
 20
183.07864089414
  0
LWPOLYLINE
  5
31E
330
1F
100
AcDbEntity
  8
Sichtbare_Kanten_TC_020513_DIN_
  6
Continuous
 62
     7
100
AcDbPolyline
 90
        2
 70
     0
 43
0.5
 10
415.656223142557
 20
213.57864089414
 42
0.4142135623731
 10
416.656223142557
 20
212.57864089414
  0
LWPOLYLINE
  5
31F
330
1F
100
AcDbEntity
  8
Sichtbare_Kanten_TC_020513_DIN_
  6
Continuous
 62
     7
100
AcDbPolyline
 90
        2
 70
     0
 43
0.5
 10
416.656223142557
 20
244.07864089414
 42
0.4142135623731
 10
415.656223142557
 20
243.07864089414
  0
LWPOLYLINE
  5
320
330
1F
100
AcDbEntity
  8
Sichtbare_Kanten_TC_020513_DIN_
  6
Continuous
 62
     7
100
AcDbPolyline
 90
        2
 70
     0
 43
0.5
 10
413.065094161702
 20
235.4634077022
 42
0.34762769519013
 10
413.551634305447
 20
235.07864089414
  0
LWPOLYLINE
  5
321
330
1F
100
AcDbEntity
  8
Sichtbare_Kanten_TC_020513_DIN_
  6
Continuous
 62
     7
100
AcDbPolyline
 90
        2
 70
     0
 43
0.5
 10
417.656223142549
 20
278.571281581259
 42
1.41421356237307
 10
417.656223142549
 20
270.08600020702
  0
LWPOLYLINE
  5
322
330
1F
100
AcDbEntity
  8
Sichtbare_Kanten_TC_020513_DIN_
  6
Continuous
 62
     7
100
AcDbPolyline
 90
        2
 70
     0
 43
0.5
 10
408.156223142552
 20
255.57864089414
 42
0.4142135623731
 10
410.156223142552
 20
253.57864089414
  0
LWPOLYLINE
  5
323
330
1F
100
AcDbEntity
  8
Sichtbare_Kanten_TC_020513_DIN_
  6
Continuous
 62
     7
100
AcDbPolyline
 90
        2
 70
     0
 43
0.5
 10
410.156223142552
 20
295.07864089414
 42
0.4142135623731
 10
408.156223142552
 20
293.07864089414
  0
LWPOLYLINE
  5
324
330
1F
100
AcDbEntity
  8
Sichtbare_Kanten_TC_020513_DIN_
  6
Continuous
 62
     7
100
AcDbPolyline
 90
        2
 70
     0
 43
0.5
 10
466.656223142547
 20
197.07864089414
 42
1.0
 10
443.156223142547
 20
197.07864089414
  0
LWPOLYLINE
  5
325
330
1F
100
AcDbEntity
  8
Sichtbare_Kanten_TC_020513_DIN_
  6
Continuous
 62
     7
100
AcDbPolyline
 90
        2
 70
     0
 43
0.5
 10
265.38035050529
 20
243.57864089414
 42
0.4142135623731
 10
264.88035050529
 20
244.07864089414
  0
LWPOLYLINE
  5
326
330
1F
100
AcDbEntity
  8
Sichtbare_Kanten_TC_020513_DIN_
  6
Continuous
 62
     7
100
AcDbPolyline
 90
        2
 70
     0
 43
0.5
 10
235.88035050529
 20
244.07864089414
 42
0.4142135623731
 10
235.38035050529
 20
243.57864089414
  0
LWPOLYLINE
  5
327
330
1F
100
AcDbEntity
  8
Sichtbare_Kanten_TC_020513_DIN_
  6
Continuous
 62
     7
100
AcDbPolyline
 90
        2
 70
     0
 43
0.5
 10
213.88035050529
 20
257.32864089414
 42
0.4142135623731
 10
219.88035050529
 20
251.32864089414
  0
LWPOLYLINE
  5
328
330
1F
100
AcDbEntity
  8
Sichtbare_Kanten_TC_020513_DIN_
  6
Continuous
 62
     7
100
AcDbPolyline
 90
        2
 70
     0
 43
0.5
 10
280.88035050529
 20
251.32864089414
 42
0.4142135623731
 10
286.88035050529
 20
257.32864089414
  0
LWPOLYLINE
  5
329
330
1F
100
AcDbEntity
  8
Sichtbare_Kanten_TC_020513_DIN_
  6
Continuous
 62
     7
100
AcDbPolyline
 90
        2
 70
     0
 43
0.5
 10
286.88035050529
 20
291.32864089414
 42
0.4142135623731
 10
280.88035050529
 20
297.32864089414
  0
LWPOLYLINE
  5
32A
330
1F
100
AcDbEntity
  8
Sichtbare_Kanten_TC_020513_DIN_
  6
Continuous
 62
     7
100
AcDbPolyline
 90
        2
 70
     0
 43
0.5
 10
219.88035050529
 20
297.32864089414
 42
0.4142135623731
 10
213.88035050529
 20
291.32864089414
  0
LWPOLYLINE
  5
32B
330
1F
100
AcDbEntity
  8
Sichtbare_Kanten_TC_020513_DIN_
  6
Continuous
 62
     7
100
AcDbPolyline
 90
        2
 70
     0
 43
0.5
 10
219.88035050529
 20
293.82864089414
 42
0.4142135623731
 10
217.38035050529
 20
291.32864089414
  0
LWPOLYLINE
  5
32C
330
1F
100
AcDbEntity
  8
Sichtbare_Kanten_TC_020513_DIN_
  6
Continuous
 62
     7
100
AcDbPolyline
 90
        2
 70
     0
 43
0.5
 10
217.38035050529
 20
257.32864089414
 42
0.4142135623731
 10
219.88035050529
 20
254.82864089414
  0
LWPOLYLINE
  5
32D
330
1F
100
AcDbEntity
  8
Sichtbare_Kanten_TC_020513_DIN_
  6
Continuous
 62
     7
100
AcDbPolyline
 90
        2
 70
     0
 43
0.5
 10
280.88035050529
 20
254.82864089414
 42
0.4142135623731
 10
283.38035050529
 20
257.32864089414
  0
LWPOLYLINE
  5
32E
330
1F
100
AcDbEntity
  8
Sichtbare_Kanten_TC_020513_DIN_
  6
Continuous
 62
     7
100
AcDbPolyline
 90
        2
 70
     0
 43
0.5
 10
283.38035050529
 20
291.32864089414
 42
0.4142135623731
 10
280.88035050529
 20
293.82864089414
  0
LWPOLYLINE
  5
32F
330
1F
100
AcDbEntity
  8
Sichtbare_Kanten_TC_020513_DIN_
  6
Continuous
 62
     7
100
AcDbPolyline
 90
        2
 70
     0
 43
0.5
 10
214.88035050529
 20
258.07864089414
 42
0.4142135623731
 10
220.63035050529
 20
252.32864089414
  0
LWPOLYLINE
  5
330
330
1F
100
AcDbEntity
  8
Sichtbare_Kanten_TC_020513_DIN_
  6
Continuous
 62
     7
100
AcDbPolyline
 90
        2
 70
     0
 43
0.5
 10
220.63035050529
 20
296.32864089414
 42
0.4142135623731
 10
214.88035050529
 20
290.57864089414
  0
LWPOLYLINE
  5
331
330
1F
100
AcDbEntity
  8
Sichtbare_Kanten_TC_020513_DIN_
  6
Continuous
 62
     7
100
AcDbPolyline
 90
        2
 70
     0
 43
0.5
 10
285.88035050529
 20
290.57864089414
 42
0.4142135623731
 10
280.13035050529
 20
296.32864089414
  0
LWPOLYLINE
  5
332
330
1F
100
AcDbEntity
  8
Sichtbare_Kanten_TC_020513_DIN_
  6
Continuous
 62
     7
100
AcDbPolyline
 90
        2
 70
     0
 43
0.5
 10
280.13035050529
 20
252.32864089414
 42
0.4142135623731
 10
285.88035050529
 20
258.07864089414
  0
LWPOLYLINE
  5
333
330
1F
100
AcDbEntity
  8
Sichtbare_Kanten_TC_020513_DIN_
  6
Continuous
 62
     7
100
AcDbPolyline
 90
        2
 70
     0
 43
0.5
 10
251.50535050529
 20
219.117823386238
 42
1.0
 10
252.25535050529
 20
219.117823386238
  0
LWPOLYLINE
  5
334
330
1F
100
AcDbEntity
  8
Sichtbare_Kanten_TC_020513_DIN_
  6
Continuous
 62
     7
100
AcDbPolyline
 90
        2
 70
     0
 43
0.5
 10
252.25535050529
 20
226.039458402041
 42
0.7271455171383
 10
251.576621645799
 20
226.25939880286
  0
LWPOLYLINE
  5
335
330
1F
100
AcDbEntity
  8
Sichtbare_Kanten_TC_020513_DIN_
  6
Continuous
 62
     7
100
AcDbPolyline
 90
        2
 70
     0
 43
0.5
 10
249.18407936478
 20
226.259398802861
 42
0.72714551713688
 10
248.50535050529
 20
226.039458402041
  0
LWPOLYLINE
  5
336
330
1F
100
AcDbEntity
  8
Sichtbare_Kanten_TC_020513_DIN_
  6
Continuous
 62
     7
100
AcDbPolyline
 90
        2
 70
     0
 43
0.5
 10
248.50535050529
 20
220.891861847777
 42
1.0
 10
249.25535050529
 20
220.891861847777
  0
LWPOLYLINE
  5
337
330
1F
100
AcDbEntity
  8
Sichtbare_Kanten_TC_020513_DIN_
  6
Continuous
 62
     7
100
AcDbPolyline
 90
        2
 70
     0
 43
0.5
 10
246.93035050529
 20
220.026477232392
 42
0.26803505952173
 10
247.117954585231
 20
219.701657637624
  0
LWPOLYLINE
  5
338
330
1F
100
AcDbEntity
  8
Sichtbare_Kanten_TC_020513_DIN_
  6
Continuous
 62
     7
100
AcDbPolyline
 90
        2
 70
     0
 43
0.5
 10
250.192954585231
 20
217.927619176085
 42
1.00000000000185
 10
250.567746425348
 20
218.577258365622
  0
LWPOLYLINE
  5
339
330
1F
100
AcDbEntity
  8
Sichtbare_Kanten_TC_020513_DIN_
  6
Continuous
 62
     7
100
AcDbPolyline
 90
        2
 70
     0
 43
0.5
 10
247.68035050529
 20
225.130804555887
 42
1.0
 10
246.93035050529
 20
225.130804555887
  0
LWPOLYLINE
  5
33A
330
1F
100
AcDbEntity
  8
Sichtbare_Kanten_TC_020513_DIN_
  6
Continuous
 62
     7
100
AcDbPolyline
 90
        2
 70
     0
 43
0.5
 10
245.43035050529
 20
220.891861847777
 42
1.0
 10
246.18035050529
 20
220.891861847777
  0
LWPOLYLINE
  5
33B
330
1F
100
AcDbEntity
  8
Sichtbare_Kanten_TC_020513_DIN_
  6
Continuous
 62
     7
100
AcDbPolyline
 90
        2
 70
     0
 43
0.5
 10
246.18035050529
 20
224.265419940503
 42
1.0
 10
245.43035050529
 20
224.265419940503
  0
LWPOLYLINE
  5
33C
330
1F
100
AcDbEntity
  8
Sichtbare_Kanten_TC_020513_DIN_
  6
Continuous
 62
     7
100
AcDbPolyline
 90
        2
 70
     0
 43
0.5
 10
253.00535050529
 20
219.983208001623
 42
0.57724345630693
 10
253.567746425348
 20
219.658388406854
  0
LWPOLYLINE
  5
33D
330
1F
100
AcDbEntity
  8
Sichtbare_Kanten_TC_020513_DIN_
  6
Continuous
 62
     7
100
AcDbPolyline
 90
        2
 70
     0
 43
0.5
 10
255.817746425348
 20
220.956465329931
 42
1.00000000000185
 10
255.442954585231
 20
221.606104519468
  0
LWPOLYLINE
  5
33E
330
1F
100
AcDbEntity
  8
Sichtbare_Kanten_TC_020513_DIN_
  6
Continuous
 62
     7
100
AcDbPolyline
 90
        2
 70
     0
 43
0.5
 10
255.63035050529
 20
222.20364089414
 42
1.0
 10
255.63035050529
 20
222.95364089414
  0
LWPOLYLINE
  5
33F
330
1F
100
AcDbEntity
  8
Sichtbare_Kanten_TC_020513_DIN_
  6
Continuous
 62
     7
100
AcDbPolyline
 90
        2
 70
     0
 43
0.5
 10
255.442954585231
 20
223.551177268811
 42
1.00000000000185
 10
255.817746425348
 20
224.200816458348
  0
LWPOLYLINE
  5
340
330
1F
100
AcDbEntity
  8
Sichtbare_Kanten_TC_020513_DIN_
  6
Continuous
 62
     7
100
AcDbPolyline
 90
        2
 70
     0
 43
0.5
 10
253.567746425348
 20
225.498893381425
 42
0.57724345630739
 10
253.00535050529
 20
225.174073786657
  0
LWPOLYLINE
  5
341
330
1F
100
AcDbEntity
  8
Sichtbare_Kanten_TC_020513_DIN_
  6
Continuous
 62
     7
100
AcDbPolyline
 90
        3
 70
     0
 43
0.5
 10
446.906223142543
 20
197.07864089414
 42
1.0
 10
462.906223142551
 20
197.07864089414
 42
1.0
 10
446.906223142543
 20
197.07864089414
  0
LWPOLYLINE
  5
342
330
1F
100
AcDbEntity
  8
Sichtbare_Kanten_TC_020513_DIN_
  6
Continuous
 62
     7
100
AcDbPolyline
 90
        3
 70
     0
 43
0.5
 10
444.906223142547
 20
197.07864089414
 42
1.0
 10
464.906223142547
 20
197.07864089414
 42
1.0
 10
444.906223142547
 20
197.07864089414
  0
LWPOLYLINE
  5
343
330
1F
100
AcDbEntity
  8
Sichtbare_Kanten_TC_020513_DIN_
  6
Continuous
 62
     7
100
AcDbPolyline
 90
        3
 70
     0
 43
0.5
 10
235.38035050529
 20
230.07864089414
 42
1.0
 10
239.88035050529
 20
230.07864089414
 42
1.0
 10
235.38035050529
 20
230.07864089414
  0
LWPOLYLINE
  5
344
330
1F
100
AcDbEntity
  8
Sichtbare_Kanten_TC_020513_DIN_
  6
Continuous
 62
     7
100
AcDbPolyline
 90
        3
 70
     0
 43
0.5
 10
235.13035050529
 20
230.07864089414
 42
1.0
 10
240.13035050529
 20
230.07864089414
 42
1.0
 10
235.13035050529
 20
230.07864089414
  0
LWPOLYLINE
  5
345
330
1F
100
AcDbEntity
  8
Sichtbare_Kanten_TC_020513_DIN_
  6
Continuous
 62
     7
100
AcDbPolyline
 90
        3
 70
     0
 43
0.5
 10
233.63035050529
 20
230.07864089414
 42
1.0
 10
241.63035050529
 20
230.07864089414
 42
1.0
 10
233.63035050529
 20
230.07864089414
  0
LWPOLYLINE
  5
346
330
1F
100
AcDbEntity
  8
Sichtbare_Kanten_TC_020513_DIN_
  6
Continuous
 62
     7
100
AcDbPolyline
 90
        3
 70
     0
 43
0.5
 10
260.88035050529
 20
230.07864089414
 42
1.0
 10
265.38035050529
 20
230.07864089414
 42
1.0
 10
260.88035050529
 20
230.07864089414
  0
LWPOLYLINE
  5
347
330
1F
100
AcDbEntity
  8
Sichtbare_Kanten_TC_020513_DIN_
  6
Continuous
 62
     7
100
AcDbPolyline
 90
        3
 70
     0
 43
0.5
 10
260.63035050529
 20
230.07864089414
 42
1.0
 10
265.63035050529
 20
230.07864089414
 42
1.0
 10
260.63035050529
 20
230.07864089414
  0
LWPOLYLINE
  5
348
330
1F
100
AcDbEntity
  8
Sichtbare_Kanten_TC_020513_DIN_
  6
Continuous
 62
     7
100
AcDbPolyline
 90
        3
 70
     0
 43
0.5
 10
259.13035050529
 20
230.07864089414
 42
1.0
 10
267.13035050529
 20
230.07864089414
 42
1.0
 10
259.13035050529
 20
230.07864089414
  0
LEADER
  5
349
330
1F
100
AcDbEntity
  8
Symbole_TC_020513_DIN_
  6
Continuous
 62
     7
100
AcDbLeader
  3
Standard
 71
     0
 76
     3
 10
477.406223142549
 20
186.57864089414
 30
0.0
 10
491.496902175511
 20
207.911199564044
 30
0.0
 10
494.896902175511
 20
207.911199564044
 30
0.0
  0
TEXT
  5
34B
330
1F
100
AcDbEntity
  8
Symbole_ISO_
 62
     7
100
AcDbText
 10
276.0
 20
38.4999999403953
 30
0.0
 40
8.00000011920929
  1
MMP 03 CP220
 41
0.74999995529652
  7
CONVERTER_13
100
AcDbText
  0
TEXT
  5
34D
330
1F
100
AcDbEntity
  8
Symbole_ISO_
 62
     7
100
AcDbText
 10
502.610914283349
 20
24.9999999999999
 30
0.0
 40
10.0
  1
1:2
 41
0.56249998509884
  7
CONVERTER_14
100
AcDbText
  0
TEXT
  5
34F
330
1F
100
AcDbEntity
  8
Symbole_ISO_
 62
     7
100
AcDbText
 10
276.0
 20
23.4999999403953
 30
0.0
 40
8.00000011920929
  1
surface mount.h.pegs, cover 2xM20 ins.
 41
0.625
  7
CONVERTER_15
100
AcDbText
  0
TOLERANCE
  5
351
330
1F
100
AcDbEntity
  8
Symbole_TC_020513_DIN_
 62
     7
100
AcDbFcf
  3
ME10_DIM_10
 10
496.496902175511
 20
204.4111996236493
 30
0.0
  1
{\Fgdt;n}^J5,5
1001
ACAD
1000
DSTYLE
1002
{
1070
   140
1040
6.99999988079071
1002
}
  0
DIMENSION
  5
35C
330
1F
100
AcDbEntity
  8
Bemaßungen_TC_020513_DIN_
100
AcDbDimension
  2
*D3
 10
184.1303505052897
 20
187.07864089414
 30
0.0
 11
176.0440202194746
 21
196.773906924153
 31
0.0
 70
    32
  1
M20
 71
     5
 42
-1.0
 53
90.0
  3
ME10_DIM_11
100
AcDbAlignedDimension
 13
204.13035050529
 23
207.07864089414
 33
0.0
 14
204.13035050529
 24
187.07864089414
 34
0.0
 50
90.0
100
AcDbRotatedDimension
  0
DIMENSION
  5
367
330
1F
100
AcDbEntity
  8
Bemaßungen_TC_020513_DIN_
100
AcDbDimension
  2
*D4
 10
408.156223142551
 20
311.3286513297418
 30
0.0
 11
446.384968026593
 21
319.3514959232237
 31
0.0
 70
    32
  1
75
 71
     5
 42
-1.0
 53
0.00013888888889
  3
ME10_DIM_12
100
AcDbAlignedDimension
 13
483.156223142557
 23
232.32864089414
 33
0.0
 14
408.156223142551
 24
291.32864089414
 34
0.0
100
AcDbRotatedDimension
  0
DIMENSION
  5
372
330
1F
100
AcDbEntity
  8
Bemaßungen_TC_020513_DIN_
100
AcDbDimension
  2
*D5
 10
426.406223142548
 20
140.5786513297413
 30
0.0
 11
455.632580577745
 21
147.9746302515814
 31
0.0
 70
    32
  1
52
 71
     5
 42
-1.0
 53
0.00013888888889
  3
ME10_DIM_13
100
AcDbAlignedDimension
 13
483.406223142548
 23
182.57864089414
 33
0.0
 14
426.406223142548
 24
184.57864089414
 34
0.0
100
AcDbRotatedDimension
  0
DIMENSION
  5
37D
330
1F
100
AcDbEntity
  8
Bemaßungen_TC_020513_DIN_
100
AcDbDimension
  2
*D6
 10
477.406223142549
 20
157.5786513297413
 30
0.0
 11
455.46545915892
 21
164.9746302515814
 31
0.0
 70
    32
  1
40
 71
     5
 42
-1.0
 53
0.00013888888889
  3
ME10_DIM_14
100
AcDbAlignedDimension
 13
432.406223142549
 23
177.57864089414
 33
0.0
 14
477.406223142549
 24
177.57864089414
 34
0.0
100
AcDbRotatedDimension
  0
DIMENSION
  5
388
330
1F
100
AcDbEntity
  8
Bemaßungen_TC_020513_DIN_
100
AcDbDimension
  2
*D7
 10
538.4062231425472
 20
239.57864089414
 30
0.0
 11
530.3833681134633
 21
219.804998329338
 31
0.0
 70
    32
  1
57
 71
     5
 42
-1.0
 53
90.0
  3
ME10_DIM_15
100
AcDbAlignedDimension
 13
482.406223142547
 23
182.57864089414
 33
0.0
 14
470.906223142551
 24
239.57864089414
 34
0.0
 50
90.0
100
AcDbRotatedDimension
  0
DIMENSION
  5
395
330
1F
100
AcDbEntity
  8
Bemaßungen_TC_020513_DIN_
100
AcDbDimension
  2
*D8
 10
496.021573443635
 20
186.57864089414
 30
0.0
 11
488.1355037918937
 21
169.006894645845
 31
0.0
 70
    32
  1
4
 71
     5
 42
-1.0
 53
90.0
  3
ME10_DIM_16
100
AcDbAlignedDimension
 13
482.406223142547
 23
182.57864089414
 33
0.0
 14
482.406223142547
 24
186.57864089414
 34
0.0
 50
90.0
100
AcDbRotatedDimension
  0
DIMENSION
  5
3A0
330
1F
100
AcDbEntity
  8
Bemaßungen_TC_020513_DIN_
100
AcDbDimension
  2
*D9
 10
203.63035050529
 20
138.5786617653562
 30
0.0
 11
252.742683383871
 21
148.4527071250589
 31
0.0
 70
    32
  1
93,5
 71
     5
 42
-1.0
 53
0.00013888888889
  3
ME10_DIM_17
100
AcDbAlignedDimension
 13
297.13035050529
 23
182.57864089414
 33
0.0
 14
203.63035050529
 24
182.57864089414
 34
0.0
100
AcDbRotatedDimension
  0
DIMENSION
  5
3AB
330
1F
100
AcDbEntity
  8
Bemaßungen_TC_020513_DIN_
100
AcDbDimension
  2
*D10
 10
209.38035050529
 20
157.5786513297411
 30
0.0
 11
251.137744775412
 21
165.6649711799544
 31
0.0
 70
    32
  1
82
 71
     5
 42
-1.0
 53
0.00013888888889
  3
ME10_DIM_18
100
AcDbAlignedDimension
 13
291.38035050529
 23
177.57864089414
 33
0.0
 14
209.38035050529
 24
177.57864089414
 34
0.0
100
AcDbRotatedDimension
  0
DIMENSION
  5
3B6
330
1F
100
AcDbEntity
  8
Bemaßungen_TC_020513_DIN_
100
AcDbDimension
  2
*D11
 10
328.6303505052897
 20
187.07864089414
 30
0.0
 11
320.5440202194746
 21
196.773906924153
 31
0.0
 70
    32
  1
M20
 71
     5
 42
-1.0
 53
90.0
  3
ME10_DIM_19
100
AcDbAlignedDimension
 13
291.313363207182
 23
207.07864089414
 33
0.0
 14
296.63035050529
 24
187.07864089414
 34
0.0
 50
90.0
100
AcDbRotatedDimension
  0
HATCH
  5
3B7
330
1F
100
AcDbEntity
  8
Symbole_TC_020513_DIN_
  6
Continuous
 62
     7
100
AcDbHatch
 10
0.0
 20
0.0
 30
0.0
210
0.0
220
0.0
230
1.0
  2
SOLID
 70
     1
 71
     1
 91
        1
 92
        1
 93
        3
 72
     1
 10
480.711218021246
 20
190.387882072487
 11
479.61269888729
 21
191.113480945442
 72
     1
 10
479.61269888729
 20
191.113480945442
 11
477.406223142549
 21
186.57864089414
 72
     1
 10
477.406223142549
 20
186.57864089414
 11
480.711218021246
 21
190.387882072487
 97
        3
330
203
330
204
330
205
 75
     0
 76
     1
 98
        1
 10
0.0
 20
0.0
  0
ENDSEC
  0
SECTION
  2
OBJECTS
  0
DICTIONARY
  5
C
330
0
100
AcDbDictionary
281
     1
  3
ACAD_GROUP
350
D
  3
ACAD_LAYOUT
350
1A
  3
ACAD_MLEADERSTYLE
350
3B9
  3
ACAD_MLINESTYLE
350
17
  3
ACAD_PLOTSETTINGS
350
19
  3
ACAD_PLOTSTYLENAME
350
E
  3
ACAD_TABLESTYLE
350
3B8
  3
ACAD_VISUALSTYLE
350
2A
  0
DICTIONARY
  5
D
102
{ACAD_REACTORS
330
C
102
}
330
C
100
AcDbDictionary
281
     1
  0
DICTIONARY
  5
1A
102
{ACAD_REACTORS
330
C
102
}
330
C
100
AcDbDictionary
281
     1
  3
Layout1
350
1E
  3
Layout2
350
26
  3
Model
350
22
  0
DICTIONARY
  5
3B9
102
{ACAD_REACTORS
330
C
102
}
330
C
100
AcDbDictionary
281
     1
  0
DICTIONARY
  5
17
102
{ACAD_REACTORS
330
C
102
}
330
C
100
AcDbDictionary
281
     1
  3
Standard
350
18
  0
DICTIONARY
  5
19
102
{ACAD_REACTORS
330
C
102
}
330
C
100
AcDbDictionary
281
     1
  0
ACDBDICTIONARYWDFLT
  5
E
102
{ACAD_REACTORS
330
C
102
}
330
C
100
AcDbDictionary
281
     1
  3
Normal
350
F
100
AcDbDictionaryWithDefault
340
F
  0
DICTIONARY
  5
3B8
102
{ACAD_REACTORS
330
C
102
}
330
C
100
AcDbDictionary
281
     1
  0
DICTIONARY
  5
2A
102
{ACAD_REACTORS
330
C
102
}
330
C
100
AcDbDictionary
281
     1
  3
2dWireframe
350
2F
  3
3D Hidden
350
31
  3
3dWireframe
350
30
  3
Basic
350
32
  3
Brighten
350
36
  3
ColorChange
350
3A
  3
Conceptual
350
34
  3
Dim
350
35
  3
Facepattern
350
39
  3
Flat
350
2B
  3
FlatWithEdges
350
2C
  3
Gouraud
350
2D
  3
GouraudWithEdges
350
2E
  3
Linepattern
350
38
  3
Realistic
350
33
  3
Thicken
350
37
  0
LAYOUT
  5
1E
102
{ACAD_REACTORS
330
1A
102
}
330
1A
100
AcDbPlotSettings
  1

  2
none_device
  4

  6

 40
0.0
 41
0.0
 42
0.0
 43
0.0
 44
0.0
 45
0.0
 46
0.0
 47
0.0
 48
0.0
 49
0.0
140
0.0
141
0.0
142
1.0
143
1.0
 70
   688
 72
     0
 73
     0
 74
     5
  7

 75
    16
147
1.0
148
0.0
149
0.0
100
AcDbLayout
  1
Layout1
 70
     1
 71
     1
 10
0.0
 20
0.0
 11
12.0
 21
9.0
 12
0.0
 22
0.0
 32
0.0
 14
1.00000000000000E+20
 24
1.00000000000000E+20
 34
1.00000000000000E+20
 15
-1.00000000000000E+20
 25
-1.00000000000000E+20
 35
-1.00000000000000E+20
146
0.0
 13
0.0
 23
0.0
 33
0.0
 16
1.0
 26
0.0
 36
0.0
 17
0.0
 27
1.0
 37
0.0
 76
     0
330
1B
  0
LAYOUT
  5
26
102
{ACAD_REACTORS
330
1A
102
}
330
1A
100
AcDbPlotSettings
  1

  2
none_device
  4

  6

 40
0.0
 41
0.0
 42
0.0
 43
0.0
 44
0.0
 45
0.0
 46
0.0
 47
0.0
 48
0.0
 49
0.0
140
0.0
141
0.0
142
1.0
143
1.0
 70
   688
 72
     0
 73
     0
 74
     5
  7

 75
    16
147
1.0
148
0.0
149
0.0
100
AcDbLayout
  1
Layout2
 70
     1
 71
     2
 10
0.0
 20
0.0
 11
0.0
 21
0.0
 12
0.0
 22
0.0
 32
0.0
 14
0.0
 24
0.0
 34
0.0
 15
0.0
 25
0.0
 35
0.0
146
0.0
 13
0.0
 23
0.0
 33
0.0
 16
1.0
 26
0.0
 36
0.0
 17
0.0
 27
1.0
 37
0.0
 76
     0
330
23
  0
LAYOUT
  5
22
102
{ACAD_REACTORS
330
1A
102
}
330
1A
100
AcDbPlotSettings
  1

  2
none_device
  4

  6

 40
0.0
 41
0.0
 42
0.0
 43
0.0
 44
0.0
 45
0.0
 46
0.0
 47
0.0
 48
0.0
 49
0.0
140
0.0
141
0.0
142
1.0
143
1.0
 70
  1712
 72
     0
 73
     0
 74
     0
  7

 75
     0
147
1.0
148
0.0
149
0.0
100
AcDbLayout
  1
Model
 70
     1
 71
     0
 10
0.0
 20
0.0
 11
12.0
 21
9.0
 12
0.0
 22
0.0
 32
0.0
 14
19.49999999999996
 24
19.4999999999999
 34
0.0
 15
574.5
 25
420.5
 35
0.0
146
0.0
 13
0.0
 23
0.0
 33
0.0
 16
1.0
 26
0.0
 36
0.0
 17
0.0
 27
1.0
 37
0.0
 76
     0
330
1F
331
29
  0
MLINESTYLE
  5
18
102
{ACAD_REACTORS
330
17
102
}
330
17
100
AcDbMlineStyle
  2
Standard
 70
     0
  3

 62
   256
 51
90.0
 52
90.0
 71
     2
 49
0.5
 62
   256
  6
BYLAYER
 49
-0.5
 62
   256
  6
BYLAYER
  0
ACDBPLACEHOLDER
  5
F
102
{ACAD_REACTORS
330
E
102
}
330
E
  0
VISUALSTYLE
  5
2F
102
{ACAD_REACTORS
330
2A
102
}
330
2A
100
AcDbVisualStyle
  2
2dWireframe
 70
     4
 71
     0
 72
     2
 73
     0
 90
        0
 40
-0.6
 41
-30.0
 62
     5
 63
     7
 74
     1
 91
        4
 64
     7
 65
   257
 75
     1
175
     1
 42
1.0
 92
        0
 66
   257
 43
1.0
 76
     1
 77
     6
 78
     2
 67
     7
 79
     5
170
     0
171
     0
290
     0
174
     0
 93
        1
 44
0.0
173
     0
291
     0
 45
0.0
1001
ACAD
1000
AcDbSavedByObjectVersion
1070
     0
  0
VISUALSTYLE
  5
31
102
{ACAD_REACTORS
330
2A
102
}
330
2A
100
AcDbVisualStyle
  2
3D Hidden
 70
     6
 71
     1
 72
     2
 73
     2
 90
        0
 40
-0.6
 41
-30.0
 62
     5
 63
     7
 74
     2
 91
        2
 64
     7
 65
   257
 75
     2
175
     1
 42
40.0
 92
        0
 66
   257
 43
1.0
 76
     1
 77
     6
 78
     2
 67
     7
 79
     3
170
     0
171
     0
290
     0
174
     0
 93
        1
 44
0.0
173
     0
291
     0
 45
0.0
1001
ACAD
1000
AcDbSavedByObjectVersion
1070
     0
  0
VISUALSTYLE
  5
30
102
{ACAD_REACTORS
330
2A
102
}
330
2A
100
AcDbVisualStyle
  2
3dWireframe
 70
     5
 71
     0
 72
     2
 73
     0
 90
        0
 40
-0.6
 41
-30.0
 62
     5
 63
     7
 74
     1
 91
        4
 64
     7
 65
   257
 75
     1
175
     1
 42
1.0
 92
        0
 66
   257
 43
1.0
 76
     1
 77
     6
 78
     2
 67
     7
 79
     5
170
     0
171
     0
290
     0
174
     0
 93
        1
 44
0.0
173
     0
291
     0
 45
0.0
1001
ACAD
1000
AcDbSavedByObjectVersion
1070
     0
  0
VISUALSTYLE
  5
32
102
{ACAD_REACTORS
330
2A
102
}
330
2A
100
AcDbVisualStyle
  2
Basic
 70
     7
 71
     1
 72
     0
 73
     1
 90
        0
 40
-0.6
 41
-30.0
 62
     5
 63
     7
 74
     0
 91
        4
 64
     7
 65
   257
 75
     1
175
     1
 42
1.0
 92
        8
 66
     7
 43
1.0
 76
     1
 77
     6
 78
     2
 67
     7
 79
     5
170
     0
171
     0
290
     0
174
     0
 93
        1
 44
0.0
173
     0
291
     1
 45
0.0
1001
ACAD
1000
AcDbSavedByObjectVersion
1070
     0
  0
VISUALSTYLE
  5
36
102
{ACAD_REACTORS
330
2A
102
}
330
2A
100
AcDbVisualStyle
  2
Brighten
 70
    12
 71
     2
 72
     2
 73
     0
 90
        0
 40
-0.6
 41
-30.0
 62
     5
 63
     7
 74
     1
 91
        4
 64
     7
 65
   257
 75
     1
175
     1
 42
1.0
 92
        8
 66
     7
 43
1.0
 76
     1
 77
     6
 78
     2
 67
     7
 79
     5
170
     0
171
     0
290
     0
174
     0
 93
        1
 44
50.0
173
     0
291
     1
 45
0.0
1001
ACAD
1000
AcDbSavedByObjectVersion
1070
     0
  0
VISUALSTYLE
  5
3A
102
{ACAD_REACTORS
330
2A
102
}
330
2A
100
AcDbVisualStyle
  2
ColorChange
 70
    16
 71
     2
 72
     2
 73
     3
 90
        0
 40
-0.6
 41
-30.0
 62
     5
 63
     8
 74
     1
 91
        4
 64
     7
 65
   257
 75
     1
175
     1
 42
1.0
 92
        8
 66
     8
 43
1.0
 76
     1
 77
     6
 78
     2
 67
     7
 79
     5
170
     0
171
     0
290
     0
174
     0
 93
        1
 44
0.0
173
     0
291
     1
 45
0.0
1001
ACAD
1000
AcDbSavedByObjectVersion
1070
     0
  0
VISUALSTYLE
  5
34
102
{ACAD_REACTORS
330
2A
102
}
330
2A
100
AcDbVisualStyle
  2
Conceptual
 70
     9
 71
     3
 72
     2
 73
     0
 90
        0
 40
-0.6
 41
-30.0
 62
     5
 63
     7
 74
     2
 91
        2
 64
     7
 65
   257
 75
     1
175
     1
 42
40.0
 92
        8
 66
     7
 43
1.0
 76
     1
 77
     6
 78
     2
 67
     7
 79
     3
170
     0
171
     0
290
     0
174
     0
 93
        1
 44
0.0
173
     0
291
     0
 45
0.0
1001
ACAD
1000
AcDbSavedByObjectVersion
1070
     0
  0
VISUALSTYLE
  5
35
102
{ACAD_REACTORS
330
2A
102
}
330
2A
100
AcDbVisualStyle
  2
Dim
 70
    11
 71
     2
 72
     2
 73
     0
 90
        0
 40
-0.6
 41
-30.0
 62
     5
 63
     7
 74
     1
 91
        4
 64
     7
 65
   257
 75
     1
175
     1
 42
1.0
 92
        8
 66
     7
 43
1.0
 76
     1
 77
     6
 78
     2
 67
     7
 79
     5
170
     0
171
     0
290
     0
174
     0
 93
        1
 44
-50.0
173
     0
291
     1
 45
0.0
1001
ACAD
1000
AcDbSavedByObjectVersion
1070
     0
  0
VISUALSTYLE
  5
39
102
{ACAD_REACTORS
330
2A
102
}
330
2A
100
AcDbVisualStyle
  2
Facepattern
 70
    15
 71
     2
 72
     2
 73
     0
 90
        0
 40
-0.6
 41
-30.0
 62
     5
 63
     7
 74
     1
 91
        4
 64
     7
 65
   257
 75
     1
175
     1
 42
1.0
 92
        8
 66
     7
 43
1.0
 76
     1
 77
     6
 78
     2
 67
     7
 79
     5
170
     0
171
     0
290
     0
174
     0
 93
        1
 44
0.0
173
     0
291
     1
 45
0.0
1001
ACAD
1000
AcDbSavedByObjectVersion
1070
     0
  0
VISUALSTYLE
  5
2B
102
{ACAD_REACTORS
330
2A
102
}
330
2A
100
AcDbVisualStyle
  2
Flat
 70
     0
 71
     2
 72
     1
 73
     1
 90
        2
 40
-0.6
 41
30.0
 62
     5
 63
     7
 74
     0
 91
        4
 64
     7
 65
   257
 75
     1
175
     1
 42
1.0
 92
        8
 66
     7
 43
1.0
 76
     1
 77
     6
 78
     2
 67
     7
 79
     5
170
     0
171
     0
290
     0
174
     0
 93
       13
 44
0.0
173
     0
291
     1
 45
0.0
1001
ACAD
1000
AcDbSavedByObjectVersion
1070
     0
  0
VISUALSTYLE
  5
2C
102
{ACAD_REACTORS
330
2A
102
}
330
2A
100
AcDbVisualStyle
  2
FlatWithEdges
 70
     1
 71
     2
 72
     1
 73
     1
 90
        2
 40
-0.6
 41
30.0
 62
     5
 63
     7
 74
     1
 91
        4
 64
     7
 65
   257
 75
     1
175
     1
 42
1.0
 92
        0
 66
   257
 43
1.0
 76
     1
 77
     6
 78
     2
 67
     7
 79
     5
170
     0
171
     0
290
     0
174
     0
 93
       13
 44
0.0
173
     0
291
     1
 45
0.0
1001
ACAD
1000
AcDbSavedByObjectVersion
1070
     0
  0
VISUALSTYLE
  5
2D
102
{ACAD_REACTORS
330
2A
102
}
330
2A
100
AcDbVisualStyle
  2
Gouraud
 70
     2
 71
     2
 72
     2
 73
     1
 90
        2
 40
-0.6
 41
30.0
 62
     5
 63
     7
 74
     0
 91
        4
 64
     7
 65
   257
 75
     1
175
     1
 42
1.0
 92
        0
 66
     7
 43
1.0
 76
     1
 77
     6
 78
     2
 67
     7
 79
     5
170
     0
171
     0
290
     0
174
     0
 93
       13
 44
0.0
173
     0
291
     1
 45
0.0
1001
ACAD
1000
AcDbSavedByObjectVersion
1070
     0
  0
VISUALSTYLE
  5
2E
102
{ACAD_REACTORS
330
2A
102
}
330
2A
100
AcDbVisualStyle
  2
GouraudWithEdges
 70
     3
 71
     2
 72
     2
 73
     1
 90
        2
 40
-0.6
 41
30.0
 62
     5
 63
     7
 74
     1
 91
        4
 64
     7
 65
   257
 75
     1
175
     1
 42
1.0
 92
        0
 66
   257
 43
1.0
 76
     1
 77
     6
 78
     2
 67
     7
 79
     5
170
     0
171
     0
290
     0
174
     0
 93
       13
 44
0.0
173
     0
291
     1
 45
0.0
1001
ACAD
1000
AcDbSavedByObjectVersion
1070
     0
  0
VISUALSTYLE
  5
38
102
{ACAD_REACTORS
330
2A
102
}
330
2A
100
AcDbVisualStyle
  2
Linepattern
 70
    14
 71
     2
 72
     2
 73
     0
 90
        0
 40
-0.6
 41
-30.0
 62
     5
 63
     7
 74
     1
 91
        4
 64
     7
 65
   257
 75
     7
175
     7
 42
1.0
 92
        8
 66
     7
 43
1.0
 76
     1
 77
     6
 78
     2
 67
     7
 79
     5
170
     0
171
     0
290
     0
174
     0
 93
        1
 44
0.0
173
     0
291
     1
 45
0.0
1001
ACAD
1000
AcDbSavedByObjectVersion
1070
     0
  0
VISUALSTYLE
  5
33
102
{ACAD_REACTORS
330
2A
102
}
330
2A
100
AcDbVisualStyle
  2
Realistic
 70
     8
 71
     2
 72
     2
 73
     0
 90
        0
 40
-0.6
 41
-30.0
 62
     5
 63
     7
 74
     1
 91
        0
 64
     7
 65
   257
 75
     1
175
     1
 42
1.0
 92
        8
 66
     8
 43
1.0
 76
     1
 77
     6
 78
     2
 67
     7
 79
     5
170
     0
171
     0
290
     0
174
     0
 93
       13
 44
0.0
173
     0
291
     0
 45
0.0
1001
ACAD
1000
AcDbSavedByObjectVersion
1070
     0
  0
VISUALSTYLE
  5
37
102
{ACAD_REACTORS
330
2A
102
}
330
2A
100
AcDbVisualStyle
  2
Thicken
 70
    13
 71
     2
 72
     2
 73
     0
 90
        0
 40
-0.6
 41
-30.0
 62
     5
 63
     7
 74
     1
 91
        4
 64
     7
 65
   257
 75
     1
175
     1
 42
1.0
 92
       12
 66
     7
 43
1.0
 76
     1
 77
     6
 78
     2
 67
     7
 79
     5
170
     0
171
     0
290
     0
174
     0
 93
        1
 44
0.0
173
     0
291
     1
 45
0.0
1001
ACAD
1000
AcDbSavedByObjectVersion
1070
     0
  0
ENDSEC
  0
EOF
